30 Days to Die (2009) *BDRip* - UnKnOwN

Filmes lançados no ano de 2012 e anos anteriores. / Movies launched in the year of 2012 and previous. (Retail DVD)

Moderador: Moderador

Responder
Avatar do Utilizador
quiZZical
eMulePoster
eMulePoster
Mensagens: 4786
Registado: 28 jul 2011, 19:30

30 Days to Die (2009) *BDRip* - UnKnOwN

Mensagem por quiZZical » 03 set 2011, 14:38




Synopsis
A group of girls trapped in an institution suffer the wrath of a serial killer on the loose. This campy thriller pays homage to Friday the 13th.


imdb.com
30 Days to Die (2009)

Capa
Sinopse:When a masked serial killer terrorizes an all-girls rehabilitation camp, the troubled teens must return to their bad-girl ways in the hopes of escaping the camp-turned-torture-chamber.
Pontuação:2.6
Duração:88 minutos
Idioma:English
Realizador:Griff Furst
Actores:Shirly Brener, Wendy Carter, Laurence Cohen, Brendan Connor, Samantha Cope
  
Fonte:http://www.imdb.com/title/tt1015987
Última Actualização:Segunda Março 12, 2018 08:59


NFO:
ÉÍÄÄÄÄÄÄÄÄÄÄÄÄÄÄÄÄÄÄÄÄÄÄÄÄÄÄÄÄÄÄÍÍÍÍÍÍÍÍÍÍÍÍÍÍÍÄÄÄÄÄÄÄÄÄÄÄÄÄÄÄÄÄÄÄÄÄÄÄÄÄÄÄÄÄÄÄÍ»
º ÿ º
º ::: :::ÿ ÿ::::: ÿÿ:::ÿ ÿ::: ::::: ÿÿ:::ÿÿÿ ::: ::: ::::: º
º ::: :::ÿ :::::::ÿÿÿ:::ÿ ÿ::: ::::::: :::::ÿÿ ::: ::: ::::::: º
º ::: :::ÿÿ:::::::::ÿÿ:::ÿÿÿ:::ÿÿÿ:::::::::ÿ ::: ::: ÿ::: ::: ::::::::: º
º ::: ::: ÿ:::ÿÿÿ:::ÿÿ:::ÿÿ:::ÿ ÿÿ:::ÿÿÿ::: ÿ::: ::: ÿ::: ::: :::ÿÿÿ::: º
º ::: ::: ÿ:::ÿ ÿ:::ÿÿ:::::::ÿÿ ÿÿ::: ÿ::: ÿ::: ::: ::: ::: :::ÿ ÿ::: º
º ::: ::: ÿ:::ÿ ÿ:::ÿÿ::::::ÿÿ ÿÿ::: ÿ::: ÿ::: ::: ::: : ::: :::ÿ ÿ::: º
º ::: ::: ÿ:::ÿ ÿ:::ÿÿ:::::::ÿÿ ÿÿ::: ÿ::: ÿ::: ::: ::: ::: ::: :::ÿ ÿ::: º
º ::: ::: ÿ:::ÿ ÿ:::ÿÿ:::ÿÿ:::ÿÿÿÿ::: ÿ::: ÿ::: ::: ::: : : ::: :::ÿ ÿ::: º
º :::..::: ÿ:::ÿ ÿ:::ÿÿ:::ÿ ÿ:::ÿÿÿ::: ÿ::: ÿ::: ::: ::::: ::::: :::ÿ ÿ::: º
º ÿ::::::ÿÿÿ:::ÿ ÿ:::ÿÿ:::ÿ ÿÿ:::ÿÿ::: ÿ::: ÿÿ:::::ÿÿ ::::: ::::: :::ÿ ÿ::: º
º ÿ::::ÿ ÿ:::ÿ ÿ:::ÿÿ:::ÿ ÿÿ:::ÿ::: ÿ::: ÿÿÿ:::ÿÿ :::: :::: :::ÿ ÿ::: º
ÌÍÄÄÄÄÄÄÄÄÄÄÄÄÄÄÄÄÄÄÄÄÄÄÄÄÄÄÄÄÄÄÍÍÍÍÍÍÍÍÍÍÍÍÍÍÍÄÄÄÄÄÄÄÄÄÄÄÄÄÄÄÄÄÄÄÄÄÄÄÄÄÄÄÄÄÄÄ͹
º º
³Ð Ð Ð Ð Ð Ð Ð Ð Ð Ð Ð Ð Ð Ð Ð Ð Ð NOTES Ð Ð Ð Ð Ð Ð Ð Ð Ð Ð Ð Ð Ð Ð Ð Ð Ð Ð ³
³ ³
³Ð Ð Ð Ð Ð Ð Ð Ð Ð Ð Ð Ð Ð Ð Ð Ð Ð NOTES Ð Ð Ð Ð Ð Ð Ð Ð Ð Ð Ð Ð Ð Ð Ð Ð Ð Ð ³
³ ³
³ ³
³ ³
³ Encoded By .......:UnKnOwN ³
³ Runtime ..........:1:18 ³
³ IMDb URL .........:http://www.imdb.com/title/tt1015987/ ³
³ Language .........:English ³
³ File Size ........:1.00gb ³
³ Release Date ......... 2011 ³
³ Source ......... Thx Bud ³
³ File Type ......... Single AVI ³
³ PS3 Compatible ....... Go for It ³
³ Genre ......... Horror/Thriller ³
³ ³
³ ³
³ Video ³
³ ID : 0 ³
³ Format : MPEG-4 Visual ³
³ Format profile : Advanced Simple@L5 ³
³ Format settings, BVOP : Yes ³
³ Format settings, QPel : No ³
³ Format settings, GMC : No warppoints ³
³ Format settings, Matrix : Custom ³
³ Codec ID : XVID ³
³ Codec ID/Hint : XviD ³
³ Duration : 1h 18mn ³
³ Bit rate : 1500Kbps ³
³ Width : 680pixels ³
³ Height : 364pixels ³
³ Display aspect ratio : 16:9 ³
³ Frame rate : 29.997fps ³
³ Color space : YUV ³
³ Chroma subsampling : 4:2:0 ³
³ Bit depth : 8 bits ³
³ Scan type : Progressive ³
³ Bits/(Pixel*Frame) : 0.234 ³
³ Stream size : 892 MiB (86%) ³
³ Writing library : XviD 1.2.1 (UTC 2008-12-04) ³
³ ³
³ ³
³ Audio ³
³ ID : 1 ³
³ Format : AC3 ³
³ Format/Info : Version 1 ³
³ Mode extension : AC3 ³
³ Codec ID : 2000 ³
³ Duration : 1h 18mn ³
³ Bit rate mode : Constant ³
³ Bit rate : 384Kbps ³
³ Channel(s) : 6channels ³
³ Channel positions : Front: L C R, Side: L R, LFE ³
³ Sampling rate : 48.0 KHz ³
³ Bit depth : 16 bits ³
³ Stream size : 302 MiB ³
³ Alignment : Aligned on interleaves ³
³ Interleave, duration : 42 ms (1.00 video frame) ³
³ Interleave, preload duration : 512 ms ³
³ ³
³ ³
³ ³
³ ³
³ ³
³ ³
³ ³
³ SYSPNOSIS ³
³ A group of girls trapped in an institution suffer the wrath of a ³
³ serial killer on the loose. This campy thriller pays homage to ³
³ Friday the 13th. ³
³ a
³ ³
³ ³
³ ³
³ RELEASE INFO ³
³ ³
³ Gots to Love B horror Chicks ³
³ ³
³ ³
³ ³
³ ³
³ ³
º º
º º
º º
ÈÍÍÍÍÍÍÍÍÍÍÍÍÍÍÍÍÍÍÍÍÍÍÍÍÍÍÍÍÍÍÍÍÍÍÍÍÍÍÍÍÍÍÍÍÍÍÍÍÍÍÍÍÍÍÍÍÍÍÍÍÍÍÍÍÍÍÍÍÍÍÍÍÍÍÍÍÍͼ
ÉÍËÍÍÍÍÍÍÍ» ÉÄËÄÄËÄÄÄËÄÄÄÄËÍÄÄÄÍËÍÄÄÄÍËÄÄÄÄËÄÄÄËÄÄËÄ» ÉÍÍÍÍÍÍÍËÍ»
Èμ ÈÄÍÍÍÍÍÄͼÍÊÍÍÊÍÍÍÊÍÍÍÍÊÍÍÍÍÍÊÍÍÍÍÍÊÍÍÍÍÊÍÍÍÊÍÍÊÍÈÍÄÍÍÍÍÍÄͼ Èμ
º º
º LOOKING FOR º
º º
º My goat º
º º
º º
º º
º º
ÉÎËÍÍÍÍÍÍÍÍÍÍÍÍÍÍÍÍÍÍÍÍÍÍÍÍÍÍÍÍÍÍÍÍÍÍÍÍÍÍÍÍÍÍÍÍÍÍÍÍÍÍÍÍÍÍÍÍÍÍÍÍÍÍÍÍÍÍÍÍÍÍÍÍÍÍËλ
È˼ Ð Ð Ð Ð Ð Ð Ð Ð Ð Ð Ð Ð Ð Ð GREETZ & RESPECT Ð Ð Ð Ð Ð Ð Ð Ð Ð Ð Ð Ð Ð ÐÈ˼
ÈÍÍÍÍÍÍÍÍÍÍÍÍÍÍÍÍÍÍÍÍÍÍÍËÍÍÍÍÍÍÍÍÍÍÍÍÍÍÍÍÍÍÍÍÍÍÍÍÍÍÍÍÍÍËÍÍÍÍÍÍÍÍÍÍÍÍÍÍÍÍÍÍÍÍͼ
º NOBODY YET WILL LET YOU KNOW º
º º
º MORE GOODIES COMING REAL SOONº
ÈÍÍÍÍÍÍÍÍÍÍÍÍÍÍÍÍÍÍÍÍÍÍÍÍÍÍÍÍÍͼ



Imagem

Imagem

Imagem

Imagem

Imagem

Imagem

Imagem


ed2k: 30.Days.to.Die.(2009).BDRip.AC3.XviD-UnKnOwN.avi  [1.02 Gb]

Responder
  • Tópicos Semelhantes
    Respostas
    Visualizações
    Última Mensagem

Voltar para “Filmes Arquivados // Filed Movies (Sem Legendas/Without Subtitles)”