Pearl Harbor (2001) *BDRip 1080p* - CHD

1080p (a1080p, 1080p)
Qualquer Alta Resolução // Any High Definition release, be it full (BD, HDDVD, HDTV stream, BDRip, HDDVDRip, HDTVRip)

Moderador: Moderador

Responder
Avatar do Utilizador
Lost_Rider34
Administrador
Administrador
Mensagens: 10736
Registado: 15 out 2008, 14:07
Localização: Aqui
Contacto:

Pearl Harbor (2001) *BDRip 1080p* - CHD

Mensagem por Lost_Rider34 » 23 mai 2011, 01:02



Com o bombardeamento dos japoneses a Pearl Harbor (EUA), dois amigos, um americano outro inglês, alistaamo-se na força aérea de cada um dos seus países para participar na 2ª Guerra Mundial. Mas no meio do drama da guerra surge um outro, relacionado com a paixão que ambos desenvolvem pela mesma mulher, no que será um teste sério à sua grande amizade.Este filme é baseado na obra homónima de Randall Wallace.


imdb.com
Pearl Harbor (2001)

Capa
Sinopse:A tale of war and romance mixed in with history. The story follows two lifelong friends and a beautiful nurse who are caught up in the horror of an infamous Sunday morning in 1941.
Pontuação:6.1
Duração:183 minutos
Idioma:English, Japanese, French
Realizador:Michael Bay
Actores:Ben Affleck, Josh Hartnett, Kate Beckinsale, William Lee Scott, Greg Zola
  
Fonte:http://www.imdb.com/title/tt0213149
Última Actualização:Segunda Março 12, 2018 06:12


Código: Selecionar todos

Pearl Harbor 2001 BDRip DTS 1080p.x264-CHD
RECODE RiPPER…: chp@CHD
RELEASE DATE….: 07/09/2008
THEATRE DATE….: 2001
GENRE………..: Action / Adventure / Horror
SOURCE TYPE…..: Blu-Ray MPEG2 1080P
ViDEO BiTRATE…: x264 @ 9158Kbps
FRAME RATE……: 23.976 fps
AUDiO BiTRATE…: DTS 5.1 1536k(From LPCM5.1 24bit/6.8m)
RUNTiME………: 183mins
ASPECT RATiO….: 2.40: 1
RESOLUTiON……: 1920 X 800
LANGUAGE……..: ENG
SUBTiTLES…….: Chinese
FilE SiZE…….: 4.35G*3
iMDB URL……..: http://www.imdb.com/title/tt0213149
iMDB RATiNG…..: 5.3/10 (55,001 votes)

avis [info]: 1920?800 @ 23.98 fps (248350 frames)
x264 [info]: slice I:4720 Avg QP:21.40 size:140071a 0:00:00
x264 [info]: slice P:170657 Avg QP:22.88 size: 57778
x264 [info]: slice B:72973 Avg QP:25.49 size: 18313
x264 [info]: mb I I16..4: 2.0% 97.5% 0.5%
x264 [info]: mb P I16..4: 0.2% 11.4% 0.1% P16..4: 52.0% 21.2% 5.4% 0.1% 0
.0% skip: 9.6%
x264 [info]: mb B I16..4: 0.0% 0.4% 0.0% B16..8: 32.8% 1.4% 1.7% direct:
7.3% skip:56.4%
x264 [info]: 8?8 transform intra:97.6% inter:70.6%
x264 [info]: direct mvs spatial:94.9% temporal:5.1%
x264 [info]: ref P 57.4% 21.9% 13.6% 7.0%
x264 [info]: ref B 69.6% 21.9% 8.5%
x264 [info]: kb/s:9158.0 Pearl Harbor (2001)

Genre:
Action, Drama, Romance, War

Rating:5.4/92,030(Votes)

Country:USA

Languages:English

Plot Outline:
Pearl Harbor follows the story of two best friends, Rafe and Danny, and their love lives as they go off to join the war.

Plot: Pearl Harbor is a classic tail of romance set during a war that complicates everything.
It all starts when childhood friends Rafe and Danny become Army Air Corps pilots and meet Evelyn a Navy nurse.
 Rafe falls head over heels and next thing you know Evelyn and Rafe are hooking up. Then Rafe volunteers to go
fight in Britain and Evelyn and Danny get transfered to Pearl Harbor. And while Rafe is off fighting everything gets
 completely whack and next thing you know everybody is in the middle of an air raid we now know as “Pearl Harbor.” Written by shoppingurl3




[youtube]http://www.youtube.com/watch?v=Xr6pVUv9cJQ[/youtube]


LINK:

ed2k: Pearl.Harbor.(2001).BDRip.1080p.DTS.x264-CHD.D1.[TheRostrum.net].avi  [4.36 Gb]
ed2k: Pearl.Harbor.(2001).BDRip.1080p.DTS.x264-CHD.D1.chs.[TheRostrum.net].srt  [104.9 Kb]
ed2k: Pearl.Harbor.2001.BDRip.1080p.x264.DTS.Audio-CHD.D1.cht.[TheRostrum.net].srt  [104.9 Kb]
ed2k: Pearl.Harbor.(2001).BDRip.1080p.DTS.x264-CHD.D1.eng.[TheRostrum.net].srt  [157.4 Kb]
ed2k: Pearl.Harbor.(2001).BDRip.1080p.DTS.x264-CHD.D2.[TheRostrum.net].avi  [4.36 Gb]
ed2k: Pearl.Harbor.(2001).BDRip.1080p.DTS.x264-CHD.D2.chs.[TheRostrum.net].srt  [58.4 Kb]
ed2k: Pearl.Harbor.(2001).BDRip.1080p.DTS.x264-CHD.D2.cht.[TheRostrum.net].srt  [58.4 Kb]
ed2k: Pearl.Harbor.(2001).BDRip.1080p.DTS.x264-CHD.D2.eng.[TheRostrum.net].srt  [89.1 Kb]
ed2k: Pearl.Harbor.2001.BDRip.1080p.x264.DTS.Audio-CHD.D3.[TheRostrum.net].avi  [4.34 Gb]
ed2k: Pearl.Harbor.2001.BDRip.1080p.x264.DTS.Audio-CHD.D3.chs.[TheRostrum.net].srt  [33.5 Kb]
ed2k: Pearl.Harbor.(2001).BDRip.1080p.DTS.x264-CHD.D3.cht.[TheRostrum.net].srt  [33.5 Kb]
ed2k: Pearl.Harbor.(2001).BDRip.1080p.DTS.x264-CHD.D3.eng.[TheRostrum.net].srt  [49.6 Kb]
ed2k: Pearl.Harbor.(2001).BDRip.1080p.DTS.x264-CHD.SAMPLE.[TheRostrum.net].avi  [101.12 Mb]
ed2k: Pearl.Harbor.(2001).BDRip.1080p.DTS.x264-CHD.[TheRostrum.net].nfo  [7.5 Kb]
Imagem

Avatar do Utilizador
Lost_Rider34
Administrador
Administrador
Mensagens: 10736
Registado: 15 out 2008, 14:07
Localização: Aqui
Contacto:

Re: Pearl Harbor (2001) *BDRip 1080p* - CHD

Mensagem por Lost_Rider34 » 05 fev 2013, 00:59

União dos dois discos, e com 2 audios.


Código: Selecionar todos

General
Unique ID                        : 175706338332148321196720682697535157943 (0x842FCF51C19BF9B08E34DCEB198A76B7)
Complete name                    : G:\Filmes HD\Pearl.Harbor.2001.Bluray.1080p.DTS.2Audio.x264-CHD.mkv
Format                           : Matroska
File size                        : 15.5 GiB
Duration                         : 3h 3mn
Overall bit rate                 : 12.1 Mbps
Encoded date                     : UTC 2009-09-29 09:25:26
Writing application              : mkvmerge v2.5.2 ('Stranger in your Soul') built on Feb 28 2009 18:58:17
Writing library                  : libebml v0.7.7 + libmatroska v0.8.1

Video
ID                               : 1
Format                           : AVC
Format/Info                      : Advanced Video Codec
Format profile                   : High@L4.1
Format settings, CABAC           : Yes
Format settings, ReFrames        : 4 frames
Codec ID                         : V_MPEG4/ISO/AVC
Duration                         : 3h 3mn
Bit rate                         : 10.2 Mbps
Width                            : 1 912 pixels
Height                           : 804 pixels
Display aspect ratio             : 2.35:1
Frame rate                       : 23.976 fps
Color space                      : YUV
Chroma subsampling               : 4:2:0
Bit depth                        : 8 bits
Scan type                        : Progressive
Bits/(Pixel*Frame)               : 0.277
Stream size                      : 12.8 GiB (82%)
Title                            : Pearl.Harbor.2001
Writing library                  : x264 core 75 r1247M b3efbe5
Encoding settings                : cabac=1 / ref=4 / deblock=1:-3:-3 / analyse=0x3:0x113 / me=umh / subme=10 / psy=1 / psy_rd=1.1:0.2 / mixed_ref=1 / me_range=24 / chroma_me=1 / trellis=2 / 8x8dct=1 / cqm=2 / deadzone=21,11 / chroma_qp_offset=-3 / threads=12 / nr=0 / decimate=1 / mbaff=0 / bframes=3 / b_pyramid=0 / b_adapt=2 / b_bias=0 / direct=3 / wpredb=1 / keyint=250 / keyint_min=25 / scenecut=40 / rc_lookahead=50 / rc=2pass / mbtree=1 / bitrate=10205 / ratetol=1.0 / qcomp=0.60 / qpmin=10 / qpmax=51 / qpstep=4 / cplxblur=20.0 / qblur=0.5 / ip_ratio=1.40 / aq=1:1.00
Language                         : English

Audio #1
ID                               : 2
Format                           : DTS
Format/Info                      : Digital Theater Systems
Codec ID                         : A_DTS
Duration                         : 3h 3mn
Bit rate mode                    : Constant
Bit rate                         : 1 510 Kbps
Channel(s)                       : 6 channels
Channel positions                : Front: L C R, Side: L R, LFE
Sampling rate                    : 48.0 KHz
Bit depth                        : 24 bits
Compression mode                 : Lossy
Stream size                      : 1.93 GiB (12%)
Title                            : DTS-5.1CH 1536K(From LPCM5.1 24b/96k)
Language                         : English

Audio #2
ID                               : 3
Format                           : AC-3
Format/Info                      : Audio Coding 3
Mode extension                   : CM (complete main)
Codec ID                         : A_AC3
Duration                         : 3h 3mn
Bit rate mode                    : Constant
Bit rate                         : 384 Kbps
Channel(s)                       : 6 channels
Channel positions                : Front: L C R, Side: L R, LFE
Sampling rate                    : 48.0 KHz
Bit depth                        : 16 bits
Compression mode                 : Lossy
Stream size                      : 503 MiB (3%)
Title                            : DD5.1 384K
Language                         : Chinese




LINKS:

ed2k: Pearl.Harbor.2001.Bluray.1080p.DTS.2Audio.x264-CHD.mkv  [15.48 Gb]
ed2k: Pearl.Harbor.2001.Bluray.1080p.DTS.2Audio.x264-CHD.Português.srt  [138.5 Kb]
Imagem

Responder

Voltar para “Alta Definição // High Definition (Sem Legendas/Without Subtitles)”