Water for Elephants (2011) *BDRip 1080p* - CHD

1080p (a1080p, 1080p)
Qualquer Alta Resolução // Any High Definition release, be it full (BD, HDDVD, HDTV stream, BDRip, HDDVDRip, HDTVRip)

Moderador: Moderador

Responder
Avatar do Utilizador
Lost_Rider34
Administrador
Administrador
Mensagens: 10736
Registado: 15 out 2008, 14:07
Localização: Aqui
Contacto:

Water for Elephants (2011) *BDRip 1080p* - CHD

Mensagem por Lost_Rider34 » 27 jan 2012, 13:19



Os vencedores do Oscar Reese Witherspoon e Christoph Waltz trabalham ao lado de Robert Pattinson (da saga Crespúculo) nesta lenda épica sobre um amor proibido, baseado no consagrado romance escrito por Sara Gruen. Num acaso do destino , o estudante de veterinária (Pattinson) e uma linda artista de circo (Reese Witherspoon) se encontram e se apaixonam, mas o romance secreto é ameçado pela ira do perigoso e instável marido da moça (Christoph Waltz).


imdb.com
Water for Elephants (2011)

Capa
Sinopse:Set in the 1930s, a former veterinary student takes a job in a traveling circus and falls in love with the ringmaster's wife.
Pontuação:6.9
Duração:120 minutos
Idioma:English, Polish
Realizador:Francis Lawrence
Actores:Reese Witherspoon, Robert Pattinson, Christoph Waltz, Paul Schneider, Jim Norton
  
Fonte:http://www.imdb.com/title/tt1067583
Última Actualização:Segunda Março 12, 2018 08:39


Código: Selecionar todos

General
Unique ID                        : 232201981190558403400536803195501089549 (0xAEB0799137B0B5E3A6FB5206E643130D)
Complete name                    : G:\Filmes HD\2011\Water.for.Elephants.2011.BluRay.1080p.DTS.x264-CHD.mkv
Format                           : Matroska
File size                        : 8.71 GiB
Duration                         : 2h 0mn
Overall bit rate                 : 10.3 Mbps
Encoded date                     : UTC 2011-08-21 14:52:09
Writing application              : mkvmerge v3.2.0 ('Beginnings') ??? Feb 12 2010 16:46:17
Writing library                  : libebml v0.7.9 + libmatroska v0.8.1

Video
ID                               : 1
Format                           : AVC
Format/Info                      : Advanced Video Codec
Format profile                   : High@L4.1
Format settings, CABAC           : Yes
Format settings, ReFrames        : 5 frames
Codec ID                         : V_MPEG4/ISO/AVC
Duration                         : 2h 0mn
Bit rate                         : 8 838 Kbps
Width                            : 1 920 pixels
Height                           : 816 pixels
Display aspect ratio             : 2.35:1
Frame rate                       : 23.976 fps
Color space                      : YUV
Chroma subsampling               : 4:2:0
Bit depth                        : 8 bits
Scan type                        : Progressive
Bits/(Pixel*Frame)               : 0.235
Stream size                      : 7.27 GiB (83%)
Title                            : Water.for.Elephants.2011
Writing library                  : x264 core 116 r2044 392e762
Encoding settings                : cabac=1 / ref=5 / deblock=1:-3:-3 / analyse=0x3:0x113 / me=umh / subme=10 / psy=1 / psy_rd=1.00:0.05 / mixed_ref=1 / me_range=48 / chroma_me=1 / trellis=2 / 8x8dct=1 / cqm=0 / deadzone=21,11 / fast_pskip=0 / chroma_qp_offset=-2 / threads=8 / sliced_threads=0 / nr=0 / decimate=1 / interlaced=0 / bluray_compat=0 / constrained_intra=0 / bframes=6 / b_pyramid=2 / b_adapt=2 / b_bias=0 / direct=3 / weightb=1 / open_gop=0 / weightp=2 / keyint=250 / keyint_min=23 / scenecut=40 / intra_refresh=0 / rc_lookahead=50 / rc=2pass / mbtree=1 / bitrate=8838 / ratetol=1.0 / qcomp=0.70 / qpmin=0 / qpmax=69 / qpstep=4 / cplxblur=20.0 / qblur=0.5 / vbv_maxrate=40000 / vbv_bufsize=40000 / nal_hrd=none / ip_ratio=1.40 / aq=2:0.90
Language                         : English

Audio
ID                               : 2
Format                           : DTS
Format/Info                      : Digital Theater Systems
Codec ID                         : A_DTS
Duration                         : 2h 0mn
Bit rate mode                    : Constant
Bit rate                         : 1 510 Kbps
Channel(s)                       : 6 channels
Channel positions                : Front: L C R, Side: L R, LFE
Sampling rate                    : 48.0 KHz
Bit depth                        : 24 bits
Compression mode                 : Lossy
Stream size                      : 1.27 GiB (15%)
Title                            : DTS-CORE 1536K
Language                         : English




LINK:

ed2k: Water.for.Elephants.2011.BluRay.1080p.DTS.x264-CHD.mkv  [8.71 Gb]
Imagem

Responder

Voltar para “Alta Definição // High Definition (Sem Legendas/Without Subtitles)”