The Hippopotamus (2017) *1080p BluRay* - CHD

1080p (a1080p, 1080p)
Qualquer Alta Resolução // Any High Definition release, be it full (BD, HDDVD, HDTV stream, BDRip, HDDVDRip, HDTVRip)

Moderador: Moderador

Responder
Avatar do Utilizador
Lost_Rider34
Administrador
Administrador
Mensagens: 10714
Registado: 15 out 2008, 14:07
Localização: Aqui
Contacto:

The Hippopotamus (2017) *1080p BluRay* - CHD

Mensagem por Lost_Rider34 » 30 out 2017, 21:50

Imagem

O difamado poeta Ted Wallace é chamado para a casa de campo de seu amigo para investigar uma série de milagres inexplicáveis.

The Hippopotamus is the story of a poet who is summoned to his friend's country manor to investigate a series of unexplained miracles. Three-time Olivier Award winner Roger Allam (Endeavor, The Queen, V for Vendetta) stars as the disgruntled, cantankerous, semi-famous poet Ted Wallace who is hired to investigate strange doings at Lord and Lady Logan's country manor, Swafford Hall. Golden Globe Winner Matthew Modine (Stranger Things, Dark Knight Rises, Full Metal Jacket) plays the stupendously rich and gregarious Lord Michael Logan. Fiona Shaw (five Harry Potter movies) co-stars as the doting mother Lady Logan. Tim McInnerny (Notting Hill, Game of Thrones) plays the flamboyant and gullible theater director Oliver Mills. The film is directed by John Jencks and produced by Jay Taylor and Alexa Seligman. This is the first Stephen Fry novel to be adapted as a feature film.


imdb.com
The Hippopotamus (2017)

Capa
Sinopse:Disgraced poet Ted Wallace is summoned to his friend's country manor to investigate a series of unexplained miracles.
Pontuação:6.4
Duração:89 minutos
Idioma:English
Realizador:John Jencks
Actores:Roger Allam, Tim Charles, Rod Glenn, Amanda Holt, Amy Marchant
  
Fonte:http://www.imdb.com/title/tt3758708
Última Actualização:Segunda Março 12, 2018 11:23


Código: Selecionar todos

Video
 ID                                       : 1
 Format                                   : AVC
 Format/Info                              : Advanced Video Codec
 Format profile                           : High@L4.1
 Format settings, CABAC                   : Yes
 Format settings, ReFrames                : 4 frames
 Codec ID                                 : V_MPEG4/ISO/AVC
 Duration                                 : 1 h 29 min
 Bit rate                                 : 9 905 kb/s
 Width                                    : 1 920 pixels
 Height                                   : 804 pixels
 Display aspect ratio                     : 2.40:1
 Frame rate mode                          : Constant
 Frame rate                               : 24.000 FPS
 Color space                              : YUV
 Chroma subsampling                       : 4:2:0
 Bit depth                                : 8 bits
 Scan type                                : Progressive
 Bits/(Pixel*Frame)                       : 0.267
 Stream size                              : 6.18 GiB (87%)
 Writing library                          : x264 core 149 r2771+45 509cceb 7mod [8-bit@all X86_64]
 Encoding settings                        : cabac=1 / ref=4 / deblock=1:-3:-3 / analyse=0x3:0x113 / me=umh / subme=10 / psy=1 / fade_compensate=0.00 / psy_rd=0.90:0.10 / mixed_ref=1 / me_range=48 / chroma_me=1 / trellis=2 / 8x8dct=1 / cqm=0 / deadzone=21,11 / fast_pskip=0 / chroma_qp_offset=-2 / threads=12 / lookahead_threads=2 / sliced_threads=0 / nr=0 / decimate=1 / interlaced=0 / bluray_compat=0 / constrained_intra=0 / fgo=0 / bframes=8 / b_pyramid=2 / b_adapt=2 / b_bias=0 / direct=3 / weightb=1 / open_gop=0 / weightp=2 / keyint=250 / keyint_min=24 / scenecut=40 / intra_refresh=0 / rc_lookahead=40 / rc=crf / mbtree=0 / crf=18.0000 / qcomp=0.70 / qpmin=0:0:0 / qpmax=69:69:69 / qpstep=4 / vbv_maxrate=35000 / vbv_bufsize=35000 / crf_max=0.0 / nal_hrd=none / filler=0 / ip_ratio=1.40 / pb_ratio=1.30 / aq=3:1.00 / aq-sensitivity=10.00 / aq-factor=1.00:1.00:1.00 / aq2=0 / aq3=2:[0.50:0.50]:[0.50:0.50]:[0.50:0.50]:[0.50:0.50] / aq3-sensitivity=10.00 / aq3-factor=[1.00:1.00]:[1.00:1.00]:[1.00:1.00] / aq3-boundary=192:64:24
 Language                                 : English
 Default                                  : Yes
 Forced                                   : No
 Color range                              : Limited
 Matrix coefficients                      : BT.709

 Audio
 ID                                       : 2
 Format                                   : DTS
 Format/Info                              : Digital Theater Systems
 Mode                                     : 16
 Format settings, Endianness              : Big
 Codec ID                                 : A_DTS
 Duration                                 : 1 h 29 min
 Bit rate mode                            : Constant
 Bit rate                                 : 1 509 kb/s
 Channel(s)                               : 6 channels
 Channel positions                        : Front: L C R, Side: L R, LFE
 Sampling rate                            : 48.0 kHz
 Frame rate                               : 93.750 FPS (512 spf)
 Bit depth                                : 24 bits
 Compression mode                         : Lossy
 Stream size                              : 964 MiB (13%)
 Language                                 : English
 Default                                  : Yes
 Forced                                   : No


Imagem Imagem
Imagem Imagem

phpBB [video]


LINK:

ed2k: The.Hippopotamus.2017.1080p.BluRay.x264.DTS-CHD.[TheRostrum.net].mkv  [7.12 Gb]
Imagem

Imagem

Responder

Voltar para “Alta Definição // High Definition (Sem Legendas/Without Subtitles)”