I Am Wrath (2016) [LiMiTED] *BDRip 1080p* - Counterfeit

1080p (a1080p, 1080p)
Qualquer Alta Resolução // Any High Definition release, be it full (BD, HDDVD, HDTV stream, BDRip, HDDVDRip, HDTVRip)

Moderador: Moderador

Responder
Avatar do Utilizador
Lost_Rider34
Administrador
Administrador
Mensagens: 10730
Registado: 15 out 2008, 14:07
Localização: Aqui
Contacto:

I Am Wrath (2016) [LiMiTED] *BDRip 1080p* - Counterfeit

Mensagem por Lost_Rider34 » 12 mai 2016, 17:42

Imagem


Na trama de vingança, após o assassinato de sua esposa, um homem (Travolta) se vê diante da imobilidade da justiça e descobre um esquema de corrupção na polícia.

john Travolta is Stanley Hill, a former Black Ops agent who witnessed his wife's death at the hands of a street gang. When corrupt cops let the prime suspect walk, Stanley takes the law into his own hands. Joined by a former comrade-in-arms (Christopher Meloni), Stanley uncovers a conspiracy that leads to the upper ranks of government, as he heads toward a guns-blazing, take-no-prisoners showdown for justice.


imdb.com
I Am Wrath (2016)

Capa
Sinopse:A man is out for justice after a group of corrupt police officers are unable to catch his wife's killer.
Pontuação:5.3
Duração:92 minutos
Idioma:English
Realizador:Chuck Russell
Actores:John Travolta, Christopher Meloni, Amanda Schull, Sam Trammell, Patrick St. Esprit
  
Fonte:http://www.imdb.com/title/tt3212232
Última Actualização:Segunda Março 12, 2018 09:42


Código: Selecionar todos

General
Unique ID                                : 193394916940511993202108007994324642852 (0x917E8193E2A69E8F8B792F92B5276C24)
Complete name                            : I.Am.Wrath.2016.1080p.Bluray.x264-Counterfeit.[sharethefiles.com].mkv
Format                                   : Matroska
Format version                           : Version 4 / Version 2
File size                                : 6.56 GiB
Duration                                 : 1h 30mn
Overall bit rate                         : 10.4 Mbps
Encoded date                             : UTC 2016-05-04 18:33:04
Writing application                      : mkvmerge v8.9.0 ('Father Daughter') 64bit
Writing library                          : libebml v1.3.3 + libmatroska v1.4.4

Video
ID                                       : 2
Format                                   : AVC
Format/Info                              : Advanced Video Codec
Format profile                           : High@L4.1
Format settings, CABAC                   : Yes
Format settings, ReFrames                : 5 frames
Codec ID                                 : V_MPEG4/ISO/AVC
Duration                                 : 1h 30mn
Bit rate                                 : 8 856 Kbps
Width                                    : 1 920 pixels
Height                                   : 800 pixels
Display aspect ratio                     : 2.40:1
Frame rate mode                          : Constant
Frame rate                               : 23.976 fps
Color space                              : YUV
Chroma subsampling                       : 4:2:0
Bit depth                                : 8 bits
Scan type                                : Progressive
Bits/(Pixel*Frame)                       : 0.240
Stream size                              : 5.47 GiB (83%)
Writing library                          : x264 core 148 r2692 64f4e24
Encoding settings                        : cabac=1 / ref=5 / deblock=1:0:0 / analyse=0x3:0x113 / me=umh / subme=8 / psy=1 / psy_rd=1.00:0.00 / mixed_ref=1 / me_range=16 / chroma_me=1 / trellis=1 / 8x8dct=1 / cqm=0 / deadzone=21,11 / fast_pskip=1 / chroma_qp_offset=-2 / threads=12 / lookahead_threads=2 / sliced_threads=0 / nr=0 / decimate=1 / interlaced=0 / bluray_compat=0 / constrained_intra=0 / bframes=3 / b_pyramid=2 / b_adapt=2 / b_bias=0 / direct=3 / weightb=1 / open_gop=0 / weightp=2 / keyint=250 / keyint_min=23 / scenecut=40 / intra_refresh=0 / rc_lookahead=50 / rc=2pass / mbtree=1 / bitrate=8856 / ratetol=1.0 / qcomp=0.60 / qpmin=0 / qpmax=69 / qpstep=4 / cplxblur=20.0 / qblur=0.5 / ip_ratio=1.40 / aq=1:1.00
Default                                  : Yes
Forced                                   : No

Audio
ID                                       : 1
Format                                   : DTS
Format/Info                              : Digital Theater Systems
Mode                                     : 16
Format settings, Endianness              : Big
Codec ID                                 : A_DTS
Duration                                 : 1h 30mn
Bit rate mode                            : Constant
Bit rate                                 : 1 509 Kbps
Channel(s)                               : 6 channels
Channel positions                        : Front: L C R, Side: L R, LFE
Sampling rate                            : 48.0 KHz
Bit depth                                : 24 bits
Compression mode                         : Lossy
Stream size                              : 978 MiB (15%)
Language                                 : English
Default                                  : Yes
Forced                                   : No

Menu
00:00:00.000                             : en:00:00:00.000
00:08:37.934                             : en:00:08:37.934
00:15:10.243                             : en:00:15:10.243
00:22:51.161                             : en:00:22:51.161
00:31:52.410                             : en:00:31:52.410
00:39:10.640                             : en:00:39:10.640
00:44:28.207                             : en:00:44:28.207
00:51:18.534                             : en:00:51:18.534
00:59:18.388                             : en:00:59:18.388
01:07:14.030                             : en:01:07:14.030
01:15:20.474                             : en:01:15:20.474
01:21:04.777                             : en:01:21:04.777




ImagemImagem
ImagemImagem


LINK:

ed2k: I.Am.Wrath.2016.1080p.Bluray.x264-Counterfeit.mkv  [6.56 Gb]
Imagem

funycaos
Utilizador
Utilizador
Mensagens: 3
Registado: 02 set 2019, 00:19

Re: I Am Wrath (2016) [LiMiTED] *BDRip 1080p* - Counterfeit

Mensagem por funycaos » 02 set 2019, 00:29

Muito obrigado :goodpost:

Responder

Voltar para “Alta Definição // High Definition (Sem Legendas/Without Subtitles)”