Cherry Tree (2015) *BDRip 1080p* - MELiTE

1080p (a1080p, 1080p)
Qualquer Alta Resolução // Any High Definition release, be it full (BD, HDDVD, HDTV stream, BDRip, HDDVDRip, HDTVRip)

Moderador: Moderador

Responder
Avatar do Utilizador
Lost_Rider34
Administrador
Administrador
Mensagens: 10714
Registado: 15 out 2008, 14:07
Localização: Aqui
Contacto:

Cherry Tree (2015) *BDRip 1080p* - MELiTE

Mensagem por Lost_Rider34 » 11 abr 2016, 16:58

Imagem


Conta a história de uma adolescente que concorda em conceber o filho de Satanás para salvar a vida de seu pai.

Faith's world is turned upside down after she finds out that her beloved father is dying. When the mysteriously alluring Sissy Young becomes her field hockey coach, Faith finds a compassionate spirit and much-needed mother figure. Little does she know that Sissy is the head of a centuries-old witches' coven that uses the fruit of an ancient cherry tree in a secret ritual that restores life to the dead and dying. Offering to cure her father in exchange for a child, Sissy strikes a bargain with Faith, who suddenly finds herself pregnant with a baby that's growing at an alarming rate. But with the clock to the child's birth ticking down and the true intention of Sissy's plans for humanity becoming more apparent, Faith and her father must stand together in order to save both their lives.


imdb.com
Cherry Tree (2015)

Capa
Sinopse:Faith's world is turned upside down after she finds out that her beloved father is dying. When the mysteriously alluring Sissy Young becomes her field hockey coach, Faith finds a ...
Pontuação:4.3
Duração:85 minutos
Idioma:English
Realizador:David Keating
Actores:Anna Walton, Naomi Battrick, Sam Hazeldine, Elva Trill, Patrick Gibson
  
Fonte:http://www.imdb.com/title/tt3792330
Última Actualização:Segunda Março 12, 2018 10:32


Código: Selecionar todos

General
Unique ID                                : 225214294964561912558486754211871728527 (0xA96EB20982E4943B93BEB5695A82238F)
Complete name                            : Cherry.Tree.2015.1080p.BluRay.x264-MELiTE.[TheRostrum.net].mkv
Format                                   : Matroska
Format version                           : Version 4 / Version 2
File size                                : 6.55 GiB
Duration                                 : 1h 25mn
Overall bit rate                         : 10.9 Mbps
Encoded date                             : UTC 2016-04-08 11:38:28
Writing application                      : mkvmerge v8.9.0 ('Father Daughter') 64bit
Writing library                          : libebml v1.3.3 + libmatroska v1.4.4
DURATION                                 : 01:25:46.230000000
NUMBER_OF_FRAMES                         : 482459
NUMBER_OF_BYTES                          : 970707508
_STATISTICS_WRITING_APP                  : mkvmerge v8.9.0 ('Father Daughter') 64bit
_STATISTICS_WRITING_DATE_UTC             : 2016-04-08 11:38:28
_STATISTICS_TAGS                         : BPS DURATION NUMBER_OF_FRAMES NUMBER_OF_BYTES

Video
ID                                       : 1
Format                                   : AVC
Format/Info                              : Advanced Video Codec
Format profile                           : High@L4.1
Format settings, CABAC                   : Yes
Format settings, ReFrames                : 4 frames
Codec ID                                 : V_MPEG4/ISO/AVC
Duration                                 : 1h 25mn
Bit rate                                 : 9 425 Kbps
Width                                    : 1 920 pixels
Height                                   : 1 040 pixels
Display aspect ratio                     : 1.85:1
Frame rate mode                          : Constant
Frame rate                               : 23.976 fps
Color space                              : YUV
Chroma subsampling                       : 4:2:0
Bit depth                                : 8 bits
Scan type                                : Progressive
Bits/(Pixel*Frame)                       : 0.197
Stream size                              : 5.51 GiB (84%)
Writing library                          : x264 core 148 r2665 a01e339
Encoding settings                        : cabac=1 / ref=4 / deblock=1:0:0 / analyse=0x3:0x113 / me=umh / subme=8 / psy=1 / psy_rd=1.00:0.00 / mixed_ref=1 / me_range=16 / chroma_me=1 / trellis=1 / 8x8dct=1 / cqm=0 / deadzone=21,11 / fast_pskip=0 / chroma_qp_offset=-2 / threads=12 / lookahead_threads=2 / sliced_threads=0 / nr=0 / decimate=1 / interlaced=0 / bluray_compat=0 / constrained_intra=0 / bframes=3 / b_pyramid=2 / b_adapt=2 / b_bias=0 / direct=3 / weightb=1 / open_gop=0 / weightp=2 / keyint=250 / keyint_min=23 / scenecut=40 / intra_refresh=0 / rc_lookahead=50 / rc=2pass / mbtree=1 / bitrate=9425 / ratetol=1.0 / qcomp=0.60 / qpmin=0 / qpmax=69 / qpstep=4 / cplxblur=20.0 / qblur=0.5 / ip_ratio=1.40 / aq=1:1.00
Default                                  : Yes
Forced                                   : No

Audio
ID                                       : 2
Format                                   : DTS
Format/Info                              : Digital Theater Systems
Mode                                     : 16
Format settings, Endianness              : Big
Codec ID                                 : A_DTS
Duration                                 : 1h 25mn
Bit rate mode                            : Constant
Bit rate                                 : 1 509 Kbps
Channel(s)                               : 6 channels
Channel positions                        : Front: L C R, Side: L R, LFE
Sampling rate                            : 48.0 KHz
Bit depth                                : 24 bits
Compression mode                         : Lossy
Stream size                              : 926 MiB (14%)
Language                                 : English
Default                                  : Yes
Forced                                   : No

Menu
00:00:00.000                             : en:00:00:00.000
00:04:49.331                             : en:00:04:49.331
00:09:31.529                             : en:00:09:31.529
00:14:34.791                             : en:00:14:34.791
00:19:58.906                             : en:00:19:58.906
00:24:51.490                             : en:00:24:51.490
00:29:27.140                             : en:00:29:27.140
00:33:23.126                             : en:00:33:23.126
00:36:29.354                             : en:00:36:29.354
00:40:12.577                             : en:00:40:12.577
00:43:36.239                             : en:00:43:36.239
00:47:20.296                             : en:00:47:20.296
00:51:32.089                             : en:00:51:32.089
00:54:28.557                             : en:00:54:28.557
01:00:09.856                             : en:01:00:09.856
01:03:42.444                             : en:01:03:42.444
01:06:57.096                             : en:01:06:57.096
01:11:58.940                             : en:01:11:58.940
01:14:42.103                             : en:01:14:42.103
01:17:40.072                             : en:01:17:40.072
01:21:58.789                             : en:01:21:58.789



Imagem Imagem
Imagem Imagem

phpBB [video]


Link:

ed2k: Cherry.Tree.2015.1080p.BluRay.x264-MELiTE.[TheRostrum.net].mkv  [6.55 Gb]
Imagem

Responder

Voltar para “Alta Definição // High Definition (Sem Legendas/Without Subtitles)”