Hellions (2015) *1080p BluRay* - RARBG

1080p (a1080p, 1080p)
Qualquer Alta Resolução // Any High Definition release, be it full (BD, HDDVD, HDTV stream, BDRip, HDDVDRip, HDTVRip)

Moderador: Moderador

Responder
Avatar do Utilizador
Lost_Rider34
Administrador
Administrador
Mensagens: 10688
Registado: 15 out 2008, 14:07
Localização: Aqui
Contacto:

Hellions (2015) *1080p BluRay* - RARBG

Mensagem por Lost_Rider34 » 14 nov 2015, 15:23

Imagem

A adolescente Dora Vogel (Chloe Rose) vê-se sozinha na noite de Halloween em Waterford, chamada de “a cidade mais dark do mundo”. Quando um grupo de seres mascarados bate a sua porta, a jovem é transportada do mundo exterior para o sombrio. Agora, Dora precisará proteger seu corpo e alma das criaturas malignas conhecidas como Hellions.

A teenager must survive a Halloween night from Hell when malevolent trick-or-treaters come knocking at her door.


imdb.com
Kinder der aus der Hölle (2015)

Capa
Sinopse:A teenager must survive a Halloween night from Hell when malevolent trick-or-treaters come knocking at her door.
Pontuação:4.3
Duração:80 minutos
Idioma:English
Realizador:Bruce McDonald
Actores:Chloe Rose, Rachel Wilson, Rossif Sutherland, Peter DaCunha, Luke Bilyk
  
Fonte:http://www.imdb.com/title/tt3305844
Última Actualização:Segunda Março 12, 2018 10:35


Código: Selecionar todos

Video
ID                                       : 1
Format                                   : AVC
Format/Info                              : Advanced Video Codec
Format profile                           : High@L4.1
Format settings, CABAC                   : Yes
Format settings, ReFrames                : 4 frames
Codec ID                                 : V_MPEG4/ISO/AVC
Duration                                 : 1h 21mn
Bit rate                                 : 10.8 Mbps
Nominal bit rate                         : 11.5 Mbps
Width                                    : 1 920 pixels
Height                                   : 1 080 pixels
Display aspect ratio                     : 16:9
Frame rate mode                          : Constant
Frame rate                               : 23.976 fps
Color space                              : YUV
Chroma subsampling                       : 4:2:0
Bit depth                                : 8 bits
Scan type                                : Progressive
Bits/(Pixel*Frame)                       : 0.218
Stream size                              : 6.17 GiB (86%)
Title                                    : Hellions.2015.1080p.BluRay.x264.DTS-RARBG
Writing library                          : x264 core 148 r2597M e86f3a1
Encoding settings                        : cabac=1 / ref=4 / deblock=1:-2:-2 / analyse=0x3:0x113 / me=umh / subme=7 / psy=1 / psy_rd=1.00:0.15 / mixed_ref=1 / me_range=16 / chroma_me=1 / trellis=1 / 8x8dct=1 / cqm=0 / deadzone=21,11 / fast_pskip=1 / chroma_qp_offset=-3 / threads=40 / lookahead_threads=8 / sliced_threads=0 / nr=0 / decimate=1 / interlaced=0 / bluray_compat=0 / constrained_intra=0 / bframes=3 / b_pyramid=2 / b_adapt=2 / b_bias=0 / direct=3 / weightb=1 / open_gop=0 / weightp=2 / keyint=250 / keyint_min=25 / scenecut=40 / intra_refresh=0 / rc_lookahead=50 / rc=abr / mbtree=1 / bitrate=11500 / ratetol=1.0 / qcomp=0.60 / qpmin=0 / qpmax=69 / qpstep=4 / vbv_maxrate=31250 / vbv_bufsize=31250 / nal_hrd=none / filler=0 / ip_ratio=1.40 / aq=1:1.00
Language                                 : English
Default                                  : Yes
Forced                                   : No

Audio
ID                                       : 2
Format                                   : DTS
Format/Info                              : Digital Theater Systems
Mode                                     : 16
Format settings, Endianness              : Big
Codec ID                                 : A_DTS
Duration                                 : 1h 21mn
Bit rate mode                            : Constant
Bit rate                                 : 1 509 Kbps
Channel(s)                               : 6 channels
Channel positions                        : Front: L C R, Side: L R, LFE
Sampling rate                            : 48.0 KHz
Bit depth                                : 24 bits
Compression mode                         : Lossy
Stream size                              : 881 MiB (12%)
Title                                    : Hellions.2015.1080p.BluRay.x264.DTS-RARBG
Language                                 : English
Default                                  : Yes
Forced                                   : No

Menu
00:00:00.000                             : en:Chapter 01
00:05:07.056                             : en:Chapter 02
00:14:31.245                             : en:Chapter 03
00:21:51.893                             : en:Chapter 04
00:32:59.936                             : en:Chapter 05
00:45:35.023                             : en:Chapter 06
00:54:22.801                             : en:Chapter 07
01:01:47.328                             : en:Chapter 08
01:10:45.157                             : en:Chapter 09
01:17:05.871                             : en:Chapter 10



Imagem Imagem
Imagem Imagem
Imagem Imagem

phpBB [video]


LINKS:

ed2k: Hellions.2015.1080p.BluRay.x264.DTS-RARBG.[TheRostrum.net].mkv  [7.17 Gb]
ed2k: Hellions.2015.1080p.BluRay.x264.DTS-RARBG.[TheRostrum.net].nfo  [4.6 Kb]
Imagem

Imagem

Avatar do Utilizador
coutinho
Utilizador
Utilizador
Mensagens: 1484
Registado: 26 out 2011, 11:06

Re: Hellions (2015) *1080p BluRay* - RARBG

Mensagem por coutinho » 14 nov 2015, 19:51

Mesmo sem legendas... vai sair, vamos lá ver se depois as encontro. Obrigado

Responder

Voltar para “Alta Definição // High Definition (Sem Legendas/Without Subtitles)”