Playing It Cool (2014) [REMUX] *1080p BluRay* - RARBG

1080p (a1080p, 1080p)
Qualquer Alta Resolução // Any High Definition release, be it full (BD, HDDVD, HDTV stream, BDRip, HDDVDRip, HDTVRip)

Moderador: Moderador

Responder
Avatar do Utilizador
Lost_Rider34
Administrador
Administrador
Mensagens: 10688
Registado: 15 out 2008, 14:07
Localização: Aqui
Contacto:

Playing It Cool (2014) [REMUX] *1080p BluRay* - RARBG

Mensagem por Lost_Rider34 » 19 mai 2015, 15:16

Imagem


Evans vai dar vida a um homem desiludido com o amor, que se apaixona à primeira vista por uma bela mulher (Michelle Monaghan) durante um jantar de caridade. Quando descobre que ela está noiva, decide inventar uma história mirabolante para tentar conquista-la e assim superar os seus problemas românticos

While pretending to be a philanthropist at a charity dinner, the man meets a gorgeous woman named HER (Monaghan). The only catch: she's engaged. In order to continue seeing each other, the two embark on a platonic relationship, one that gets pushed to the test as the two begin to realize they may have unrequited feelings for one another. Like a young Walter Mitty, ME uses the power of imagination and wild vignettes to conquer HER heart.


imdb.com
Playing It Cool (2014)

Capa
Sinopse:Unrequited love motivates a guy to write about his experiences.
Pontuação:6.0
Duração:94 minutos
Idioma:English, Korean
Realizador:Justin Reardon
Actores:Chris Evans, Michelle Monaghan, Topher Grace, Aubrey Plaza, Luke Wilson
  
Fonte:http://www.imdb.com/title/tt2139555
Última Actualização:Segunda Março 12, 2018 08:19


Código: Selecionar todos

Video
ID                                       : 1
Format                                   : AVC
Format/Info                              : Advanced Video Codec
Format profile                           : High@L4.1
Format settings, CABAC                   : Yes
Format settings, ReFrames                : 4 frames
Codec ID                                 : V_MPEG4/ISO/AVC
Duration                                 : 1h 34mn
Bit rate mode                            : Variable
Maximum bit rate                         : 35.0 Mbps
Width                                    : 1 920 pixels
Height                                   : 1 080 pixels
Display aspect ratio                     : 16:9
Frame rate mode                          : Constant
Frame rate                               : 23.976 fps
Standard                                 : NTSC
Color space                              : YUV
Chroma subsampling                       : 4:2:0
Bit depth                                : 8 bits
Scan type                                : Progressive
Title                                    : Playing.It.Cool.2014.1080p.BluRay.REMUX.AVC.TrueHD.5.1-RARBG
Language                                 : English
Default                                  : No
Forced                                   : No
Color primaries                          : BT.709
Transfer characteristics                 : BT.709
Matrix coefficients                      : BT.709
Color range                              : Limited

Audio #1
ID                                       : 2
Format                                   : TrueHD
Codec ID                                 : A_TRUEHD
Duration                                 : 1h 34mn
Bit rate mode                            : Variable
Maximum bit rate                         : 2 538 Kbps
Channel(s)                               : 6 channels
Channel positions                        : Front: L C R, Side: L R, LFE
Sampling rate                            : 48.0 KHz
Bit depth                                : 24 bits
Compression mode                         : Lossless
Title                                    : Playing.It.Cool.2014.1080p.BluRay.REMUX.AVC.TrueHD.5.1-RARBG
Language                                 : English
Default                                  : Yes
Forced                                   : No

Audio #2
ID                                       : 3
Format                                   : AC-3
Format/Info                              : Audio Coding 3
Mode extension                           : CM (complete main)
Format settings, Endianness              : Big
Codec ID                                 : A_AC3
Duration                                 : 1h 34mn
Bit rate mode                            : Constant
Bit rate                                 : 640 Kbps
Channel(s)                               : 6 channels
Channel positions                        : Front: L C R, Side: L R, LFE
Sampling rate                            : 48.0 KHz
Bit depth                                : 16 bits
Compression mode                         : Lossy
Stream size                              : 434 MiB (2%)
Title                                    : Playing.It.Cool.2014.1080p.BluRay.REMUX.AVC.TrueHD.5.1-RARBG
Language                                 : English
Default                                  : No
Forced                                   : No

Audio #3
ID                                       : 4
Format                                   : TrueHD
Codec ID                                 : A_TRUEHD
Duration                                 : 1h 34mn
Bit rate mode                            : Variable
Maximum bit rate                         : 2 775 Kbps
Channel(s)                               : 6 channels
Channel positions                        : Front: L C R, Side: L R, LFE
Sampling rate                            : 48.0 KHz
Bit depth                                : 24 bits
Compression mode                         : Lossless
Title                                    : Playing.It.Cool.2014.1080p.BluRay.REMUX.AVC.TrueHD.5.1-RARBG
Language                                 : French
Default                                  : No
Forced                                   : No

Audio #4
ID                                       : 5
Format                                   : AC-3
Format/Info                              : Audio Coding 3
Mode extension                           : CM (complete main)
Format settings, Endianness              : Big
Codec ID                                 : A_AC3
Duration                                 : 1h 34mn
Bit rate mode                            : Constant
Bit rate                                 : 640 Kbps
Channel(s)                               : 6 channels
Channel positions                        : Front: L C R, Side: L R, LFE
Sampling rate                            : 48.0 KHz
Bit depth                                : 16 bits
Compression mode                         : Lossy
Stream size                              : 434 MiB (2%)
Title                                    : Playing.It.Cool.2014.1080p.BluRay.REMUX.AVC.TrueHD.5.1-RARBG
Language                                 : French
Default                                  : No
Forced                                   : No

Text #1
ID                                       : 6
Format                                   : PGS
Muxing mode                              : zlib
Codec ID                                 : S_HDMV/PGS
Codec ID/Info                            : The same subtitle format used on BDs/HD-DVDs
Language                                 : English
Default                                  : No
Forced                                   : No

Text #2
ID                                       : 7
Format                                   : PGS
Muxing mode                              : zlib
Codec ID                                 : S_HDMV/PGS
Codec ID/Info                            : The same subtitle format used on BDs/HD-DVDs
Language                                 : French
Default                                  : No
Forced                                   : No

Text #3
ID                                       : 8
Format                                   : PGS
Muxing mode                              : zlib
Codec ID                                 : S_HDMV/PGS
Codec ID/Info                            : The same subtitle format used on BDs/HD-DVDs
Language                                 : French
Default                                  : No
Forced                                   : No

Menu
00:00:00.000                             : en:Chapter 01
00:13:34.230                             : en:Chapter 02
00:26:21.162                             : en:Chapter 03
00:41:23.063                             : en:Chapter 04
00:58:08.359                             : en:Chapter 05
01:09:03.264                             : en:Chapter 06
01:19:51.203                             : en:Chapter 07
01:28:57.332                             : en:Chapter 08



Imagem
Imagem
Imagem
Imagem
Imagem
Imagem


phpBB [video]



LINKS:

ed2k: Playing.It.Cool.2014.1080p.BluRay.REMUX.AVC.TrueHD.5.1-RARBG.[TheRostrum.net].mkv  [22.61 Gb]
ed2k: Playing.It.Cool.2014.1080p.BluRay.REMUX.AVC.TrueHD.5.1-RARBG.[TheRostrum.net].nfo  [7.2 Kb]
Imagem

Imagem

Avatar do Utilizador
coutinho
Utilizador
Utilizador
Mensagens: 1484
Registado: 26 out 2011, 11:06

Re: Playing It Cool (2014) [REMUX] *1080p BluRay* - RARBG

Mensagem por coutinho » 19 mai 2015, 16:25

Vamos ver se depois consigo arranjar as legendas. Obrigado

giraldino
Utilizador
Utilizador
Mensagens: 2841
Registado: 22 dez 2010, 22:24

Re: Playing It Cool (2014) [REMUX] *1080p BluRay* - RARBG

Mensagem por giraldino » 19 mai 2015, 19:51

:goodpost:

Avatar do Utilizador
Lost_Rider34
Administrador
Administrador
Mensagens: 10688
Registado: 15 out 2008, 14:07
Localização: Aqui
Contacto:

Re: Playing It Cool (2014) [REMUX] *1080p BluRay* - RARBG

Mensagem por Lost_Rider34 » 19 mai 2015, 20:01

coutinho Escreveu:Vamos ver se depois consigo arranjar as legendas. Obrigado



Existe legendas mas nenhuma para esta versão ainda. Assim que houver serão postadas.

Cumps.
Imagem

Imagem

Responder

Voltar para “Alta Definição // High Definition (Sem Legendas/Without Subtitles)”