Good Kill (2014) *1080p BDRip* - RARBG

1080p (a1080p, 1080p)
Qualquer Alta Resolução // Any High Definition release, be it full (BD, HDDVD, HDTV stream, BDRip, HDDVDRip, HDTVRip)

Moderador: Moderador

Responder
Avatar do Utilizador
Lost_Rider34
Administrador
Administrador
Mensagens: 10714
Registado: 15 out 2008, 14:07
Localização: Aqui
Contacto:

Good Kill (2014) *1080p BDRip* - RARBG

Mensagem por Lost_Rider34 » 05 mai 2015, 13:42

Imagem


O major Tommy Egan (Ethan Hawke) é um oficial da Força Aérea americana encarregado de dirigir ataques aéreos na guerra no Afeganistão. Após pilotar drones de controle remoto contra os talibãs por 8 horas, todos os dias, ele volta para sua casaem Las Vegas, onde vive com sua esposa (January Jones) e filhos. Mas, a cada nova missão, sua moral fica mais conturbada. Tommy começa a se desligar da vida real, vendo sua rotina familiar cair aos pedaços enquanto o caos da guerra só cresce cada vez mais.

In the shadowy world of drone warfare, combat unfolds like a video game-only with real lives at stake. After six tours of duty, Air Force pilot Tom Egan (Ethan Hawke) yearns to get back into the cockpit of a real plane, but he now fights theTaliban from an air-conditioned box in the Las Vegas desert. When he and his crew start taking orders directly from the CIA, and the stakes are raised, Egan's nerves-and his relationship with his wife (Mad Men's January Jones)-begin to unravel. Revealing the psychological toll drone pilots endure as they are forced to witness the aftermath of their fight against insurgents, Andrew Niccol (Gattaca, Lord of War) directs this riveting insider's view of 21st-century warfare, in which operatives target enemies from half a world away.


imdb.com
Good Kill (2014)

Capa
Sinopse:A family man begins to question the ethics of his job as a drone pilot.
Pontuação:6.4
Duração:102 minutos
Idioma:English
Realizador:Andrew Niccol
Actores:Fatima El Bahraouy, El Khttabi Abdelouahab, Ethan Hawke, Bruce Greenwood, Jake Abel
  
Fonte:http://www.imdb.com/title/tt3297330
Última Actualização:Segunda Março 12, 2018 09:22


Código: Selecionar todos

General
Unique ID                                : 188449056633920957752162912259413858268 (0x8DC5F7D677EEF1009345285F69CB57DC)
Complete name                            : D:\Armazém\Posts\Good.Kill.(2014).1080p.BluRay.x264.DD5.1-RARBG.mkv
Format                                   : Matroska
Format version                           : Version 4 / Version 2
File size                                : 3.53 GiB
Duration                                 : 1h 42mn
Overall bit rate                         : 4 908 Kbps
Movie name                               : RARBG.COM - Good.Kill.2014.1080p.BluRay.x264.DD5.1-RARBG
Encoded date                             : UTC 2015-04-04 07:50:12
Writing application                      : mkvmerge v7.8.0 ('River Man') 64bit built on Mar 27 2015 16:31:37
Writing library                          : libebml v1.3.1 + libmatroska v1.4.2

Video
ID                                       : 1
Format                                   : AVC
Format/Info                              : Advanced Video Codec
Format profile                           : High@L4.1
Format settings, CABAC                   : Yes
Format settings, ReFrames                : 5 frames
Codec ID                                 : V_MPEG4/ISO/AVC
Duration                                 : 1h 42mn
Bit rate                                 : 4 362 Kbps
Width                                    : 1 920 pixels
Height                                   : 808 pixels
Display aspect ratio                     : 2.40:1
Frame rate mode                          : Constant
Frame rate                               : 23.976 fps
Color space                              : YUV
Chroma subsampling                       : 4:2:0
Bit depth                                : 8 bits
Scan type                                : Progressive
Bits/(Pixel*Frame)                       : 0.117
Stream size                              : 3.14 GiB (89%)
Title                                    : Good.Kill.2014.1080p.BluRay.x264.DD5.1-RARBG
Writing library                          : x264 core 144 r2525 40bb568
Encoding settings                        : cabac=1 / ref=5 / deblock=1:-1:-1 / analyse=0x3:0x133 / me=umh / subme=7 / psy=1 / psy_rd=1.00:0.15 / mixed_ref=1 / me_range=16 / chroma_me=1 / trellis=1 / 8x8dct=1 / cqm=0 / deadzone=21,11 / fast_pskip=0 / chroma_qp_offset=-3 / threads=18 / lookahead_threads=3 / sliced_threads=0 / nr=0 / decimate=1 / interlaced=0 / bluray_compat=0 / constrained_intra=0 / bframes=3 / b_pyramid=2 / b_adapt=1 / b_bias=0 / direct=1 / weightb=1 / open_gop=0 / weightp=2 / keyint=250 / keyint_min=23 / scenecut=40 / intra_refresh=0 / rc_lookahead=40 / rc=crf / mbtree=1 / crf=20.0 / qcomp=0.60 / qpmin=0 / qpmax=69 / qpstep=4 / ip_ratio=1.40 / aq=1:1.00
Default                                  : Yes
Forced                                   : No

Audio
ID                                       : 2
Format                                   : AC-3
Format/Info                              : Audio Coding 3
Mode extension                           : CM (complete main)
Format settings, Endianness              : Big
Codec ID                                 : A_AC3
Duration                                 : 1h 42mn
Bit rate mode                            : Constant
Bit rate                                 : 448 Kbps
Channel(s)                               : 6 channels
Channel positions                        : Front: L C R, Side: L R, LFE
Sampling rate                            : 48.0 KHz
Bit depth                                : 16 bits
Compression mode                         : Lossy
Stream size                              : 330 MiB (9%)
Title                                    : Good.Kill.2014.1080p.BluRay.x264.DD5.1-RARBG
Language                                 : English
Default                                  : Yes
Forced                                   : No

Menu
00:00:00.000                             : en:00:00:00.000
00:08:43.356                             : en:00:08:43.356
00:17:10.154                             : en:00:17:10.154
00:25:14.680                             : en:00:25:14.680
00:32:01.169                             : en:00:32:01.169
00:44:48.644                             : en:00:44:48.644
00:51:46.353                             : en:00:51:46.353
00:59:28.023                             : en:00:59:28.023
01:08:03.246                             : en:01:08:03.246
01:15:06.585                             : en:01:15:06.585
01:23:33.759                             : en:01:23:33.759
01:30:24.336                             : en:01:30:24.336





Imagem
Imagem
Imagem


Links:

ed2k: Good.Kill.(2014).1080p.BluRay.x264.DD5.1-RARBG.mkv  [3.53 Gb]
Imagem

Avatar do Utilizador
coutinho
Utilizador
Utilizador
Mensagens: 1495
Registado: 26 out 2011, 11:06

Re: Good Kill (2014) *1080p BluRay* - RARBG

Mensagem por coutinho » 05 mai 2015, 14:27

Vai sair. Obrigado

Responder

Voltar para “Alta Definição // High Definition (Sem Legendas/Without Subtitles)”