Careful What You Wish For (2015) *1080p BDRip* - RARBG

1080p (a1080p, 1080p)
Qualquer Alta Resolução // Any High Definition release, be it full (BD, HDDVD, HDTV stream, BDRip, HDDVDRip, HDTVRip)

Moderador: Moderador

Responder
Avatar do Utilizador
Lost_Rider34
Administrador
Administrador
Mensagens: 10688
Registado: 15 out 2008, 14:07
Localização: Aqui
Contacto:

Careful What You Wish For (2015) *1080p BDRip* - RARBG

Mensagem por Lost_Rider34 » 04 abr 2015, 16:34

Imagem


Doug (Nick Jonas) recebe mais do que esperava quando começa a se relacionar com Lena (Isabel Lucas), a jovem esposa de um banqueiro de investimentos que alugou a casa do lago para o verão. Com a morte suspeita do seu marido todo mundo se torna suspeito nessa trama.

A guy gets more than he bargained for after entering into an affair with the wife of an investment banker. Soon, a suspicious death and substantial life insurance policy embroil him in a scandal.


imdb.com
Careful What You Wish For (2015)

Capa
Sinopse:A guy gets more than he bargained for after entering into an affair with the wife of an investment banker. Soon, a suspicious death and substantial life insurance policy embroil him in a scandal.
Pontuação:5.6
Duração:91 minutos
Idioma:English
Realizador:Elizabeth Allen Rosenbaum
Actores:Nick Jonas, Kiki Harris, David Sherrill, Graham Rogers, Paul Sorvino
  
Fonte:http://www.imdb.com/title/tt1629242
Última Actualização:Segunda Março 12, 2018 08:30


Código: Selecionar todos

Video
ID                                       : 1
Format                                   : AVC
Format/Info                              : Advanced Video Codec
Format profile                           : High@L4.1
Format settings, CABAC                   : Yes
Format settings, ReFrames                : 5 frames
Codec ID                                 : V_MPEG4/ISO/AVC
Duration                                 : 1h 31mn
Bit rate                                 : 5 595 Kbps
Width                                    : 1 920 pixels
Height                                   : 816 pixels
Display aspect ratio                     : 2.35:1
Frame rate mode                          : Constant
Frame rate                               : 24.000 fps
Color space                              : YUV
Chroma subsampling                       : 4:2:0
Bit depth                                : 8 bits
Scan type                                : Progressive
Bits/(Pixel*Frame)                       : 0.149
Stream size                              : 3.57 GiB (77%)
Title                                    : Careful.What.You.Wish.For.2015.1080p.BluRay.x264.DTS-RARBG
Writing library                          : x264 core 144 r2525 40bb568
Encoding settings                        : cabac=1 / ref=5 / deblock=1:-1:-1 / analyse=0x3:0x133 / me=umh / subme=7 / psy=1 / psy_rd=1.00:0.15 / mixed_ref=1 / me_range=16 / chroma_me=1 / trellis=1 / 8x8dct=1 / cqm=0 / deadzone=21,11 / fast_pskip=0 / chroma_qp_offset=-3 / threads=18 / lookahead_threads=3 / sliced_threads=0 / nr=0 / decimate=1 / interlaced=0 / bluray_compat=0 / constrained_intra=0 / bframes=3 / b_pyramid=2 / b_adapt=1 / b_bias=0 / direct=1 / weightb=1 / open_gop=0 / weightp=2 / keyint=250 / keyint_min=24 / scenecut=40 / intra_refresh=0 / rc_lookahead=40 / rc=crf / mbtree=1 / crf=20.0 / qcomp=0.60 / qpmin=0 / qpmax=69 / qpstep=4 / ip_ratio=1.40 / aq=1:1.00
Default                                  : Yes
Forced                                   : No

Audio
ID                                       : 2
Format                                   : DTS
Format/Info                              : Digital Theater Systems
Mode                                     : 16
Format settings, Endianness              : Big
Codec ID                                 : A_DTS
Duration                                 : 1h 31mn
Bit rate mode                            : Constant
Bit rate                                 : 1 509 Kbps
Channel(s)                               : 6 channels
Channel positions                        : Front: L C R, Side: L R, LFE
Sampling rate                            : 48.0 KHz
Bit depth                                : 24 bits
Compression mode                         : Lossy
Stream size                              : 986 MiB (21%)
Title                                    : Careful.What.You.Wish.For.2015.1080p.BluRay.x264.DTS-RARBG
Language                                 : English
Default                                  : Yes
Forced                                   : No

Menu
00:00:00.000                             : en:00:00:00.000
00:09:46.583                             : en:00:09:46.583
00:18:24.292                             : en:00:18:24.292
00:29:17.625                             : en:00:29:17.625
00:40:01.708                             : en:00:40:01.708
00:52:08.708                             : en:00:52:08.708
01:03:56.083                             : en:01:03:56.083
01:13:51.750                             : en:01:13:51.750
01:28:08.542                             : en:01:28:08.542



Imagem
Imagem
Imagem
Imagem


phpBB [video]



LINKS:

ed2k: Careful.What.You.Wish.For.2015.1080p.BluRay.x264.DTS-RARBG.[TheRostrum.net].mkv  [4.62 Gb]
ed2k: Careful.What.You.Wish.For.2015.1080p.BluRay.x264.DTS-RARBG.[TheRostrum.net].nfo  [3.7 Kb]
Imagem

Imagem

Responder

Voltar para “Alta Definição // High Definition (Sem Legendas/Without Subtitles)”