The Timber (2015) *1080p BDRip* - RARBG

1080p (a1080p, 1080p)
Qualquer Alta Resolução // Any High Definition release, be it full (BD, HDDVD, HDTV stream, BDRip, HDDVDRip, HDTVRip)

Moderador: Moderador

Responder
Avatar do Utilizador
Lost_Rider34
Administrador
Administrador
Mensagens: 10712
Registado: 15 out 2008, 14:07
Localização: Aqui
Contacto:

The Timber (2015) *1080p BDRip* - RARBG

Mensagem por Lost_Rider34 » 22 fev 2015, 16:37

Imagem


No oeste selvagem, dois irmãos embarcam em uma jornada para coletar uma recompensa em uma tentativa desesperada para salvar sua casa, mas o que eles encontram ao longo do caminho é mais do que esperavam.

In the wild west| two brothers embark on a journey to collect a bounty in a desperate attempt to save their home: but what they find along the way is more than they bargained for.


imdb.com
The Timber (2015)

Capa
Sinopse:In the wild west, two brothers embark on a journey to collect a bounty in a desperate attempt to save their home: but what they find along the way is more than they bargained for.
Pontuação:5.1
Duração:81 minutos
Idioma:English
Realizador:Anthony O'Brien
Actores:James Ransone, Elisa Lasowski, Mark Caven, William Gaunt, David Bailie
  
Fonte:http://www.imdb.com/title/tt2215673
Última Actualização:Segunda Março 12, 2018 08:37


Código: Selecionar todos

Video
ID                                       : 1
Format                                   : AVC
Format/Info                              : Advanced Video Codec
Format profile                           : High@L4.1
Format settings, CABAC                   : Yes
Format settings, ReFrames                : 5 frames
Codec ID                                 : V_MPEG4/ISO/AVC
Duration                                 : 1h 22mn
Bit rate                                 : 5 480 Kbps
Width                                    : 1 920 pixels
Height                                   : 800 pixels
Display aspect ratio                     : 2.40:1
Frame rate mode                          : Constant
Frame rate                               : 23.976 fps
Color space                              : YUV
Chroma subsampling                       : 4:2:0
Bit depth                                : 8 bits
Scan type                                : Progressive
Bits/(Pixel*Frame)                       : 0.149
Stream size                              : 3.15 GiB (86%)
Title                                    : The.Timber.2015.1080p.BluRay.x264.DTS-RARBG
Writing library                          : x264 core 144 r2525 40bb568
Encoding settings                        : cabac=1 / ref=5 / deblock=1:-1:-1 / analyse=0x3:0x133 / me=umh / subme=7 / psy=1 / psy_rd=1.00:0.15 / mixed_ref=1 / me_range=16 / chroma_me=1 / trellis=1 / 8x8dct=1 / cqm=0 / deadzone=21,11 / fast_pskip=0 / chroma_qp_offset=-3 / threads=8 / lookahead_threads=1 / sliced_threads=0 / nr=0 / decimate=1 / interlaced=0 / bluray_compat=0 / constrained_intra=0 / bframes=3 / b_pyramid=2 / b_adapt=1 / b_bias=0 / direct=1 / weightb=1 / open_gop=0 / weightp=2 / keyint=250 / keyint_min=23 / scenecut=40 / intra_refresh=0 / rc_lookahead=40 / rc=crf / mbtree=1 / crf=20.0 / qcomp=0.60 / qpmin=0 / qpmax=69 / qpstep=4 / ip_ratio=1.40 / aq=1:1.00
Default                                  : Yes
Forced                                   : No

Audio
ID                                       : 2
Format                                   : DTS
Format/Info                              : Digital Theater Systems
Mode                                     : 16
Format settings, Endianness              : Big
Codec ID                                 : A_DTS
Duration                                 : 1h 22mn
Bit rate mode                            : Constant
Bit rate                                 : 768 Kbps
Channel(s)                               : 6 channels
Channel positions                        : Front: L C R, Side: L R, LFE
Sampling rate                            : 48.0 KHz
Bit depth                                : 16 bits
Compression mode                         : Lossy
Stream size                              : 452 MiB (12%)
Title                                    : The.Timber.2015.1080p.BluRay.x264.DTS-RARBG
Language                                 : English
Default                                  : Yes
Forced                                   : No

Menu
00:00:00.000                             : en:00:00:00.000
00:02:24.686                             : en:00:02:24.686
00:11:11.087                             : en:00:11:11.087
00:20:43.909                             : en:00:20:43.909
00:27:49.001                             : en:00:27:49.001
00:32:34.995                             : en:00:32:34.995
00:42:19.954                             : en:00:42:19.954
00:52:39.990                             : en:00:52:39.990
00:57:54.971                             : en:00:57:54.971
01:02:19.945                             : en:01:02:19.945
01:10:06.953                             : en:01:10:06.953
01:15:48.961                             : en:01:15:48.961



Imagem
Imagem
Imagem
Imagem


LINKS:

ed2k: The.Timber.2015.1080p.BluRay.x264.DTS-RARBG.[TheRostrum.net].mkv  [3.67 Gb]
ed2k: The.Timber.2015.1080p.BluRay.x264.DTS-RARBG.[TheRostrum.net].nfo  [3.8 Kb]
Imagem

Avatar do Utilizador
coutinho
Utilizador
Utilizador
Mensagens: 1495
Registado: 26 out 2011, 11:06

Re: The Timber (2015) *1080p BDRip* - RARBG

Mensagem por coutinho » 22 fev 2015, 18:38

Vai sair. Obrigado

Responder

Voltar para “Alta Definição // High Definition (Sem Legendas/Without Subtitles)”