The Homesman (2014) *1080p BluRay* - RARBG

1080p (a1080p, 1080p)
Qualquer Alta Resolução // Any High Definition release, be it full (BD, HDDVD, HDTV stream, BDRip, HDDVDRip, HDTVRip)

Moderador: Moderador

Responder
Avatar do Utilizador
Lost_Rider34
Administrador
Administrador
Mensagens: 10736
Registado: 15 out 2008, 14:07
Localização: Aqui
Contacto:

The Homesman (2014) *1080p BluRay* - RARBG

Mensagem por Lost_Rider34 » 24 set 2014, 01:56

Imagem

Na história, uma exploradora (Hilary Swank) e um velho malandro (Jones) que tenta roubar sua glória terão que escoltar três mulheres loucas de Nebraska até Iowa, enfrentando as dificuldades naturais do trajeto.

When three women living on the edge of the American frontier are driven mad by harsh pioneer life, the task of saving them falls to the pious, independent-minded Mary Bee Cuddy (Hilary Swank). Transporting the women by covered wagon to Iowa, she soon realizes just how daunting the journey will be, and employs a low-life drifter, George Briggs (Tommy Lee Jones), to join her. The unlikely pair and the three women (Grace Gummer, Miranda Otto, Sonja Richter) head east, where a waiting minister and his wife (Meryl Streep) have offered to take the women in. But the group first must traverse the harsh Nebraska Territories marked by stark beauty, psychological peril and constant threat.


imdb.com
The Homesman (2014)

Capa
Sinopse:Three women who have been driven mad by pioneer life are to be transported across the country by covered wagon by the pious, independent-minded Mary Bee Cuddy, who in turn employs low-life drifter George Briggs to assist her.
Pontuação:6.6
Duração:122 minutos
Idioma:English, Danish
Realizador:Tommy Lee Jones
Actores:Tommy Lee Jones, Hilary Swank, Grace Gummer, Miranda Otto, Sonja Richter
  
Fonte:http://www.imdb.com/title/tt2398231
Última Actualização:Segunda Março 12, 2018 11:29


NFO:
Format                                   : Matroska
Format version : Version 4 / Version 2
File size : 8.55 GiB
Duration : 2h 2mn
Overall bit rate : 9 983 Kbps
Movie name : RARBG.COM - The.Homesman.2014.1080p.BluRay.x264.DTS-RARBG
Encoded date : UTC 2014-09-19 18:58:41
Writing application : mkvmerge v7.2.0 ('On Every Street') 64bit built on Sep 13 2014 15:52:10
Writing library : libebml v1.3.0 + libmatroska v1.4.1

Video
ID : 1
Format : AVC
Format/Info : Advanced Video Codec
Format profile : High@L4.1
Format settings, CABAC : Yes
Format settings, ReFrames : 5 frames
Codec ID : V_MPEG4/ISO/AVC
Duration : 2h 2mn
Bit rate : 8 476 Kbps
Width : 1 920 pixels
Height : 816 pixels
Display aspect ratio : 2.35:1
Frame rate mode : Constant
Frame rate : 24.000 fps
Color space : YUV
Chroma subsampling : 4:2:0
Bit depth : 8 bits
Scan type : Progressive
Bits/(Pixel*Frame) : 0.225
Stream size : 7.08 GiB (83%)
Title : The.Homesman.2014.1080p.BluRay.x264.DTS-RARBG
Writing library : x264 core 142 r2479 dd79a61

Encoding settings : cabac=1 / ref=5 / deblock=1:-3:-3 / analyse=0x3:0x113 / me=umh / subme=8 / psy=1 / psy_rd=1.00:0.00
/ mixed_ref=1 / me_range=16 / chroma_me=1 / trellis=1 / 8x8dct=1 / cqm=0 / deadzone=21,11 / fast_pskip=1 / chroma_qp_offset=-2 / threads=12 /
lookahead_threads=2 / sliced_threads=0 / nr=0 / decimate=1 / interlaced=0 / bluray_compat=0 / constrained_intra=0 / bframes=3 / b_pyramid=2 /
b_adapt=2 / b_bias=0 / direct=3 / weightb=1 / open_gop=0 / weightp=2 / keyint=240 / keyint_min=24 / scenecut=40 / intra_refresh=0
/ rc_lookahead=50 / rc=2pass / mbtree=1 / bitrate=8476 / ratetol=1.0 / qcomp=0.60 / qpmin=0 / qpmax=69 / qpstep=4 / cplxblur=20.0
/ qblur=0.5 / ip_ratio=1.40 / aq=1:1.00

Language : English
Default : Yes
Forced : No

Audio
ID : 2
Format : DTS
Format/Info : Digital Theater Systems
Mode : 16
Format settings, Endianness : Big
Codec ID : A_DTS
Duration : 2h 2mn
Bit rate mode : Constant
Bit rate : 1 509 Kbps
Channel(s) : 6 channels
Channel positions : Front: L C R, Side: L R, LFE
Sampling rate : 48.0 KHz
Bit depth : 24 bits
Compression mode : Lossy
Stream size : 1.29 GiB (15%)
Title : The.Homesman.2014.1080p.BluRay.x264.DTS-RARBG
Language : English
Default : Yes
Forced : No

Menu
00:00:00.000 : en:00:00:00.000
00:09:29.500 : en:00:09:29.500
00:21:25.417 : en:00:21:25.417
00:31:59.917 : en:00:31:59.917
00:39:52.125 : en:00:39:52.125
00:48:20.458 : en:00:48:20.458
01:00:31.750 : en:01:00:31.750
01:08:45.458 : en:01:08:45.458
01:15:46.000 : en:01:15:46.000
01:27:10.792 : en:01:27:10.792
01:35:24.167 : en:01:35:24.167
01:49:10.833 : en:01:49:10.833


Notes:
Greetz to everyone :)


Imagem

Imagem

Imagem

Imagem

Imagem

Imagem

Imagem

Imagem


phpBB [video]



LINKS:

ed2k: The.Homesman.2014.1080p.BluRay.x264.DTS-RBG.[TheRostrum.net].mkv  [8.55 Gb]
ed2k: The.Homesman.2014.1080p.BluRay.x264.DTS-RBG.[TheRostrum.net].nfo  [4.6 Kb]
Imagem

Responder

Voltar para “Alta Definição // High Definition (Sem Legendas/Without Subtitles)”