Syrup (2013) [LiMiTED] *BDRip 1080p* - GECKOS

1080p (a1080p, 1080p)
Qualquer Alta Resolução // Any High Definition release, be it full (BD, HDDVD, HDTV stream, BDRip, HDDVDRip, HDTVRip)

Moderador: Moderador

Responder
Avatar do Utilizador
Lost_Rider34
Administrador
Administrador
Mensagens: 10690
Registado: 15 out 2008, 14:07
Localização: Aqui
Contacto:

Syrup (2013) [LiMiTED] *BDRip 1080p* - GECKOS

Mensagem por Lost_Rider34 » 24 jan 2014, 14:38




Sinopse
Um publicitário recém-formado que atende pelo pseudônimo Scat, por achar que seu nome real não vai levá-lo a lugar algum, tem uma ideia milionária: um novo tipo de refrigerante, que ele chama de Fukk. Quando Scat vai apresentá-lo à Coca-Cola, descobre que Sneaky Pete, seu melhor amigo, roubou sua ideia. Ele então se une à impiedosa marqueteira Six para se vingar. Baseado no romance de Max Barry.


imdb.com
Syrup (2013)

Capa
Sinopse:A slacker hatches a million-dollar idea. But, in order to see it through, he has to learn to trust his attractive corporate counterpart. Based on Max Barry's novel.
Pontuação:5.7
Duração:90 minutos
Idioma:English
Realizador:Aram Rappaport
Actores:Juan Luis Acevedo, Kirstie Alley, Jolene Andersen, Max Barry, Katie Blake
  
Fonte:http://www.imdb.com/title/tt0762138
Última Actualização:Segunda Março 12, 2018 10:16


Código: Selecionar todos

General
Unique ID                                : 182892804063268462935558133813744989673 (0x8997DF6F8C5346ACBAF760A9E06375E9)
Complete name                            : Z:\ZzZ\Syrup.2013.LIMITED.1080p.BluRay.x264-GECKOS.dp.mkv
Format                                   : Matroska
Format version                           : Version 4 / Version 2
File size                                : 6.55 GiB
Duration                                 : 1h 29mn
Overall bit rate                         : 10.4 Mbps
Encoded date                             : UTC 2013-10-31 02:17:09
Writing application                      : mkvmerge v6.2.0 ('Promised Land') built on Apr 28 2013 12:22:01
Writing library                          : libebml v1.3.0 + libmatroska v1.4.0

Video
ID                                       : 1
Format                                   : AVC
Format/Info                              : Advanced Video Codec
Format profile                           : High@L4.1
Format settings, CABAC                   : Yes
Format settings, ReFrames                : 5 frames
Codec ID                                 : V_MPEG4/ISO/AVC
Duration                                 : 1h 29mn
Bit rate                                 : 8 923 Kbps
Width                                    : 1 920 pixels
Height                                   : 816 pixels
Display aspect ratio                     : 2.35:1
Frame rate mode                          : Constant
Frame rate                               : 23.976 fps
Color space                              : YUV
Chroma subsampling                       : 4:2:0
Bit depth                                : 8 bits
Scan type                                : Progressive
Bits/(Pixel*Frame)                       : 0.238
Stream size                              : 5.48 GiB (84%)
Title                                    : X264
Writing library                          : x264 core 133 r2334 a3ac64b
Encoding settings                        : cabac=1 / ref=5 / deblock=1:0:0 / analyse=0x3:0x133 / me=umh / subme=7 / psy=1 / psy_rd=1.00:0.00 / mixed_ref=1 / me_range=16 / chroma_me=1 / trellis=1 / 8x8dct=1 / cqm=0 / deadzone=21,11 / fast_pskip=0 / chroma_qp_offset=-2 / threads=36 / lookahead_threads=6 / sliced_threads=0 / nr=0 / decimate=1 / interlaced=0 / bluray_compat=0 / constrained_intra=0 / bframes=3 / b_pyramid=2 / b_adapt=1 / b_bias=0 / direct=1 / weightb=1 / open_gop=0 / weightp=2 / keyint=250 / keyint_min=23 / scenecut=40 / intra_refresh=0 / rc_lookahead=40 / rc=2pass / mbtree=1 / bitrate=8923 / ratetol=1.0 / qcomp=0.60 / qpmin=0 / qpmax=69 / qpstep=4 / cplxblur=20.0 / qblur=0.5 / ip_ratio=1.40 / aq=1:1.00
Language                                 : English
Default                                  : Yes
Forced                                   : No

Audio
ID                                       : 2
Format                                   : DTS
Format/Info                              : Digital Theater Systems
Mode                                     : 16
Format settings, Endianness              : Big
Codec ID                                 : A_DTS
Duration                                 : 1h 29mn
Bit rate mode                            : Constant
Bit rate                                 : 1 509 Kbps
Channel(s)                               : 6 channels
Channel positions                        : Front: L C R, Side: L R, LFE
Sampling rate                            : 48.0 KHz
Bit depth                                : 24 bits
Compression mode                         : Lossy
Stream size                              : 971 MiB (14%)
Title                                    : DTS
Language                                 : English
Default                                  : Yes
Forced                                   : No

Menu
00:00:00.000                             : en:00:00:00.000
00:07:56.893                             : en:00:07:56.893
00:15:47.113                             : en:00:15:47.113
00:23:38.250                             : en:00:23:38.250
00:29:31.061                             : en:00:29:31.061
00:38:03.239                             : en:00:38:03.239
00:45:35.024                             : en:00:45:35.024
00:52:39.114                             : en:00:52:39.114
00:58:53.613                             : en:00:58:53.613
01:07:13.279                             : en:01:07:13.279
01:14:05.691                             : en:01:14:05.691
01:24:58.593                             : en:01:24:58.593


Imagem Imagem Imagem Imagem Imagem
Imagem Imagem Imagem Imagem Imagem


[youtube]http://www.youtube.com/watch?v=H6GCDAcvuCs[/youtube]


LINK:

ed2k: Syrup.(2013).LiMiTED.BDRip.1080p.DTS.x264-GECKOS.mkv  [6.55 Gb]
Imagem

Imagem

Responder

Voltar para “Alta Definição // High Definition (Sem Legendas/Without Subtitles)”