Run (2013) *BDRip 1080p* - ENCOUNTERS

1080p (a1080p, 1080p)
Qualquer Alta Resolução // Any High Definition release, be it full (BD, HDDVD, HDTV stream, BDRip, HDDVDRip, HDTVRip)

Moderador: Moderador

Responder
Avatar do Utilizador
Lost_Rider34
Administrador
Administrador
Mensagens: 10714
Registado: 15 out 2008, 14:07
Localização: Aqui
Contacto:

Run (2013) *BDRip 1080p* - ENCOUNTERS

Mensagem por Lost_Rider34 » 12 nov 2013, 05:24

Imagem


Sinopse
Thriller de ação que gira em torno de um esperto rapaz de 17 anos chamado Daniel, que pratica o Parkour e é tanto herói e ladrão.


imdb.com
Run (2013)

Capa
Sinopse:RUN is a fast-paced, action/thriller, which centers on a street smart, 17-year-old named Daniel who practices Parkour and is both hero and thief.
Pontuação:4.7
Duração:90 minutos
Idioma:English
Realizador:Simone Bartesaghi
Actores:William Moseley, Kelsey Asbille, Edoardo Ballerini, Craig Henningsen, Adrian Pasdar
  
Fonte:http://www.imdb.com/title/tt2215457
Última Actualização:Segunda Março 12, 2018 11:34


Código: Selecionar todos

General
Unique ID                                : 173494542159842514369750380983247553252 (0x8285D55944119DB99DB5B03BB711C2E4)
Complete name                            : Run.2013.1080p.BluRay.x264-ENCOUNTERS.mkv
Format                                   : Matroska
Format version                           : Version 2
File size                                : 6.02 GiB
Duration                                 : 1h 30mn
Overall bit rate                         : 9 520 Kbps
Encoded date                             : UTC 2013-09-26 12:52:27
Writing application                      : mkvmerge v5.8.0 ('No Sleep / Pillow') built on Sep  2 2012 15:37:04
Writing library                          : libebml v1.2.3 + libmatroska v1.3.0

Video
ID                                       : 1
Format                                   : AVC
Format/Info                              : Advanced Video Codec
Format profile                           : High@L4.1
Format settings, CABAC                   : Yes
Format settings, ReFrames                : 4 frames
Codec ID                                 : V_MPEG4/ISO/AVC
Duration                                 : 1h 30mn
Bit rate                                 : 7 821 Kbps
Width                                    : 1 920 pixels
Height                                   : 1 080 pixels
Display aspect ratio                     : 16:9
Frame rate mode                          : Constant
Frame rate                               : 23.976 fps
Color space                              : YUV
Chroma subsampling                       : 4:2:0
Bit depth                                : 8 bits
Scan type                                : Progressive
Bits/(Pixel*Frame)                       : 0.157
Stream size                              : 4.95 GiB (82%)
Writing library                          : x264 core 138 r2358 9e941d1
Encoding settings                        : cabac=1 / ref=4 / deblock=1:-1:-1 / analyse=0x3:0x133 / me=umh / subme=7 / psy=1 / psy_rd=1.00:0.15 / mixed_ref=1 /

me_range=16 / chroma_me=1 / trellis=1 / 8x8dct=1 / cqm=0 / deadzone=21,11 / fast_pskip=0 / chroma_qp_offset=-3 / threads=9 / lookahead_threads=1 / sliced_threads=0 /

nr=0 / decimate=1 / interlaced=0 / bluray_compat=0 / constrained_intra=0 / bframes=3 / b_pyramid=2 / b_adapt=1 / b_bias=0 / direct=1 / weightb=1 / open_gop=0 /

weightp=2 / keyint=250 / keyint_min=23 / scenecut=40 / intra_refresh=0 / rc_lookahead=40 / rc=crf / mbtree=1 / crf=20.0 / qcomp=0.60 / qpmin=0 / qpmax=69 / qpstep=4 /

ip_ratio=1.40 / aq=1:1.00
Default                                  : Yes
Forced                                   : No

Audio
ID                                       : 2
Format                                   : DTS
Format/Info                              : Digital Theater Systems
Mode                                     : 16
Format settings, Endianness              : Big
Codec ID                                 : A_DTS
Duration                                 : 1h 30mn
Bit rate mode                            : Constant
Bit rate                                 : 1 509 Kbps
Channel(s)                               : 6 channels
Channel positions                        : Front: L C R, Side: L R, LFE
Sampling rate                            : 48.0 KHz
Bit depth                                : 16 bits
Compression mode                         : Lossy
Stream size                              : 977 MiB (16%)
Title                                    : English
Language                                 : English
Default                                  : Yes
Forced                                   : No

Text
ID                                       : 3
Format                                   : UTF-8
Codec ID                                 : S_TEXT/UTF8
Codec ID/Info                            : UTF-8 Plain Text
Title                                    : German Forced
Language                                 : German
Default                                  : Yes
Forced                                   : Yes















ed2k: Run.(2013).1080p.BluRay.x264-ENCOUNTERS.mkv  [6.02 Gb]
Imagem

elciclon
Utilizador
Utilizador
Mensagens: 12
Registado: 12 ago 2009, 18:50

Re: Run (2013) *BDRip 1080p* - ENCOUNTERS

Mensagem por elciclon » 12 nov 2013, 13:35

Obrigaduuuuuuuuuuuuuuuuuuuuu





elciclon

Responder

Voltar para “Alta Definição // High Definition (Sem Legendas/Without Subtitles)”