The Purge (2013) *BDRip 1080p* - SPARKS

1080p (a1080p, 1080p)
Qualquer Alta Resolução // Any High Definition release, be it full (BD, HDDVD, HDTV stream, BDRip, HDDVDRip, HDTVRip)

Moderador: Moderador

Responder
Avatar do Utilizador
Lost_Rider34
Administrador
Administrador
Mensagens: 10690
Registado: 15 out 2008, 14:07
Localização: Aqui
Contacto:

The Purge (2013) *BDRip 1080p* - SPARKS

Mensagem por Lost_Rider34 » 02 out 2013, 22:43

Imagem

Sinopse
Em uma América devastada pelo crime, o governo sancionou um período de 12 horas anuais em que toda e qualquer atividade criminosa, incluindo assassinato, é legal. A polícia não pode ser chamada e os hospitais suspendem ajuda. É uma noite em que a cidadania se regula sem pensamento de punição. Nesta noite atormentada pela violência e por uma epidemia de crime, uma família luta com a decisão de quem eles se tornarão quando um estranho bate à sua porta.



imdb.com
The Purge - Die Säuberung (2013)

Capa
Sinopse:A wealthy family are held hostage for harboring the target of a murderous syndicate during the Purge, a 12-hour period in which any and all crime is legal.
Pontuação:5.7
Duração:85 minutos
Idioma:English
Realizador:James DeMonaco
Actores:Ethan Hawke, Lena Headey, Max Burkholder, Adelaide Kane, Edwin Hodge
  
Fonte:http://www.imdb.com/title/tt2184339
Última Actualização:Segunda Março 12, 2018 08:09




Código: Selecionar todos

General
Unique ID                        : 189218758921608759180649536457424915029 (0x8E5A351729C400F495EEC25ABC2A4A55)
Complete name                    : F:\HD Movies\The.Purge.2013.1080p.BluRay.x264-SPARKS.mkv
Format                           : Matroska
File size                        : 6.56 GiB
Duration                         : 1h 25mn
Overall bit rate                 : 11.0 Mbps
Encoded date                     : UTC 2013-09-26 00:33:47
Writing application              : mkvmerge v6.2.0 ('Promised Land') built on Apr 28 2013 12:22:01
Writing library                  : libebml v1.3.0 + libmatroska v1.4.0

Video
ID                               : 1
Format                           : AVC
Format/Info                      : Advanced Video Codec
Format profile                   : High@L4.1
Format settings, CABAC           : Yes
Format settings, ReFrames        : 5 frames
Format settings, GOP             : M=4, N=16
Codec ID                         : V_MPEG4/ISO/AVC
Duration                         : 1h 25mn
Bit rate                         : 9 493 Kbps
Width                            : 1 920 pixels
Height                           : 800 pixels
Display aspect ratio             : 2.40:1
Frame rate                       : 23.976 fps
Color space                      : YUV
Chroma subsampling               : 4:2:0
Bit depth                        : 8 bits
Scan type                        : Progressive
Bits/(Pixel*Frame)               : 0.258
Stream size                      : 5.53 GiB (84%)
Title                            : X264
Writing library                  : x264 core 133 r2334 a3ac64b
Encoding settings                : cabac=1 / ref=5 / deblock=1:0:0 / analyse=0x3:0x133 / me=umh / subme=7 / psy=1 / psy_rd=1.00:0.00 / mixed_ref=1 / me_range=16 / chroma_me=1 / trellis=1 / 8x8dct=1 / cqm=0 / deadzone=21,11 / fast_pskip=0 / chroma_qp_offset=-2 / threads=12 / lookahead_threads=2 / sliced_threads=0 / nr=0 / decimate=1 / interlaced=0 / bluray_compat=0 / constrained_intra=0 / bframes=3 / b_pyramid=2 / b_adapt=1 / b_bias=0 / direct=1 / weightb=1 / open_gop=0 / weightp=2 / keyint=250 / keyint_min=23 / scenecut=40 / intra_refresh=0 / rc_lookahead=40 / rc=2pass / mbtree=1 / bitrate=9493 / ratetol=1.0 / qcomp=0.60 / qpmin=0 / qpmax=69 / qpstep=4 / cplxblur=20.0 / qblur=0.5 / ip_ratio=1.40 / aq=1:1.00
Language                         : English

Audio
ID                               : 2
Format                           : DTS
Format/Info                      : Digital Theater Systems
Codec ID                         : A_DTS
Duration                         : 1h 25mn
Bit rate mode                    : Constant
Bit rate                         : 1 510 Kbps
Channel(s)                       : 6 channels
Channel positions                : Front: L C R, Side: L R, LFE
Sampling rate                    : 48.0 KHz
Bit depth                        : 24 bits
Compression mode                 : Lossy
Stream size                      : 921 MiB (14%)
Title                            : DTS
Language                         : English

Menu
00:00:00.000                     : en:00:00:00.000
00:04:30.562                     : en:00:04:30.562
00:07:24.402                     : en:00:07:24.402
00:13:48.619                     : en:00:13:48.619
00:18:24.103                     : en:00:18:24.103
00:23:11.473                     : en:00:23:11.473
00:28:13.859                     : en:00:28:13.859
00:31:33.266                     : en:00:31:33.266
00:35:42.182                     : en:00:35:42.182
00:39:28.741                     : en:00:39:28.741
00:44:37.508                     : en:00:44:37.508
00:47:53.120                     : en:00:47:53.120
00:50:33.447                     : en:00:50:33.447
00:56:02.234                     : en:00:56:02.234
01:00:20.283                     : en:01:00:20.283
01:03:35.729                     : en:01:03:35.729
01:07:09.776                     : en:01:07:09.776
01:11:09.891                     : en:01:11:09.891
01:16:01.807                     : en:01:16:01.807
01:19:27.096                     : en:01:19:27.096


[youtube]https://www.youtube.com/watch?v=4qI7wuFnQ08[/youtube]


LINK:

ed2k: The.Purge.2013.1080p.BluRay.x264-SPARKS.mkv  [6.56 Gb]
Imagem

Imagem

Responder

Voltar para “Alta Definição // High Definition (Sem Legendas/Without Subtitles)”