Harsh Times (2005) *BDRip 1080p* - Shiv@

1080p (a1080p, 1080p)
Qualquer Alta Resolução // Any High Definition release, be it full (BD, HDDVD, HDTV stream, BDRip, HDDVDRip, HDTVRip)

Moderador: Moderador

Responder
Avatar do Utilizador
Lost_Rider34
Administrador
Administrador
Mensagens: 10730
Registado: 15 out 2008, 14:07
Localização: Aqui
Contacto:

Harsh Times (2005) *BDRip 1080p* - Shiv@

Mensagem por Lost_Rider34 » 01 out 2013, 14:15




Sinopse
Jim Davis é um ex-fuzileiro dispensado do exército, perseguido pelas memórias da guerra. Enquanto tenta entrar para a polícia, Jim mata o tempo com seu amigo desempregado numa viagem de drogas, violência e mulheres.

An unstable Gulf War veteran with a savior complex receives a shocking wake-up call upon returning stateside and accepting a position with the Department of Homeland Security in the directorial debut of Training Day screenwriter David Ayer. Jim (Christian Bale) is a Gulf War veteran who believes his sworn duty to protect his fellow Americans extends to the streets of Los Angeles, and he longs to fulfill his destiny by joining the LAPD. Rejected by the force and left to ponder his future with his impoverished Mexican paramour -- whom he had intended on bringing to the city after joining the police -- the dejected and unemployed veteran is offered a second shot at helping his country when he is subsequently approached by the Department of Homeland Security. As Jim and his unemployed best friend, Mike (Freddy Rodriguez), carve a swath of chaos through the streets of Los Angeles, the weight of their American dream soon comes crashing down in a devastating blow that threatens to dash their high hopes for a bright future.


imdb.com
Harsh Times (2005)

Capa
Sinopse:A tough-minded drama about two friends in South Central Los Angeles and the violence that comes between them.
Pontuação:6.9
Duração:116 minutos
Idioma:English, Spanish, Korean
Realizador:David Ayer
Actores:Christian Bale, Freddy Rodríguez, Eva Longoria, Chaka Forman, Tammy Trull
  
Fonte:http://www.imdb.com/title/tt0433387
Última Actualização:Segunda Março 12, 2018 10:59


Código: Selecionar todos

General
General
Unique ID                                : 249617460748508398665029644010558549629 (0xBBCA9300B87A84EB98F30F765A936E7D)
Complete name                            : Harsh.Times.(2005).BDRip.1080p.AC3.x264-Shiv@.mkv
Format                                   : Matroska
Format version                           : Version 2
File size                                : 7.96 GiB
Duration                                 : 1h 56mn
Overall bit rate                         : 9 821 Kbps
Encoded date                             : UTC 2013-03-09 18:23:59
Writing application                      : mkvmerge v5.8.0 ('No Sleep / Pillow') built on Sep  2 2012 15:37:04
Writing library                          : libebml v1.2.3 + libmatroska v1.3.0

Video
ID                                       : 1
Format                                   : AVC
Format/Info                              : Advanced Video Codec
Format profile                           : High@L4.1
Format settings, CABAC                   : Yes
Format settings, ReFrames                : 4 frames
Codec ID                                 : V_MPEG4/ISO/AVC
Duration                                 : 1h 56mn
Bit rate                                 : 8 540 Kbps
Width                                    : 1 916 pixels
Height                                   : 1 076 pixels
Display aspect ratio                     : 16:9
Frame rate mode                          : Constant
Frame rate                               : 23.976 fps
Color space                              : YUV
Chroma subsampling                       : 4:2:0
Bit depth                                : 8 bits
Scan type                                : Progressive
Bits/(Pixel*Frame)                       : 0.173
Stream size                              : 6.76 GiB (85%)
Title                                    : Harsh Times - Bitrate=8538 kbps - AvQuant=19.839 - Shiv@
Writing library                          : x264 core 129 r2245 bc13772
Encoding settings                        : cabac=1 / ref=4 / deblock=1:-2:-1 / analyse=0x3:0x133 / me=umh / subme=9 / psy=1 / psy_rd=1.00:0.15 /
mixed_ref=1 / me_range=32 / chroma_me=1 / trellis=2 / 8x8dct=1 / cqm=0 / deadzone=21,11 / fast_pskip=0 / chroma_qp_offset=-3 / threads=12
/ lookahead_threads=2 / sliced_threads=0 / nr=0 / decimate=1 / interlaced=0 / bluray_compat=0 / constrained_intra=0 / bframes=5 / b_pyramid=2
/ b_adapt=2 / b_bias=0 / direct=3 / weightb=1 / open_gop=0 / weightp=2 / keyint=230 / keyint_min=23 / scenecut=40 / intra_refresh=0 / rc_lookahead=60
/ rc=2pass / mbtree=1 / bitrate=8540 / ratetol=1.0 / qcomp=0.60 / qpmin=0 / qpmax=69 / qpstep=4 / cplxblur=20.0 / qblur=0.5 / ip_ratio=1.40 / aq=1:1.00
Default                                  : Yes
Forced                                   : No

Audio #1
ID                                       : 2
Format                                   : AC-3
Format/Info                              : Audio Coding 3
Mode extension                           : CM (complete main)
Format settings, Endianness              : Big
Codec ID                                 : A_AC3
Duration                                 : 1h 56mn
Bit rate mode                            : Constant
Bit rate                                 : 640 Kbps
Channel(s)                               : 6 channels
Channel positions                        : Front: L C R, Side: L R, LFE
Sampling rate                            : 48.0 KHz
Bit depth                                : 16 bits
Compression mode                         : Lossy
Stream size                              : 531 MiB (7%)
Title                                    : English Ac 3 5.1 chnls 640 kbps
Language                                 : English
Default                                  : Yes
Forced                                   : No

Audio #2
ID                                       : 3
Format                                   : AC-3
Format/Info                              : Audio Coding 3
Mode extension                           : CM (complete main)
Format settings, Endianness              : Big
Codec ID                                 : A_AC3
Duration                                 : 1h 56mn
Bit rate mode                            : Constant
Bit rate                                 : 640 Kbps
Channel(s)                               : 6 channels
Channel positions                        : Front: L C R, Side: L R, LFE
Sampling rate                            : 48.0 KHz
Bit depth                                : 16 bits
Compression mode                         : Lossy
Stream size                              : 531 MiB (7%)
Title                                    : Italian Ac 3 5.1 chnls 640 kbps
Language                                 : Italian
Default                                  : No
Forced                                   : No

Text #1
ID                                       : 4
Format                                   : UTF-8
Codec ID                                 : S_TEXT/UTF8
Codec ID/Info                            : UTF-8 Plain Text
Title                                    : italian
Language                                 : Italian
Default                                  : Yes
Forced                                   : No

Text #2
ID                                       : 5
Format                                   : UTF-8
Codec ID                                 : S_TEXT/UTF8
Codec ID/Info                            : UTF-8 Plain Text
Title                                    : italian non udenti
Language                                 : Italian
Default                                  : No
Forced                                   : No

Text #3
ID                                       : 6
Format                                   : UTF-8
Codec ID                                 : S_TEXT/UTF8
Codec ID/Info                            : UTF-8 Plain Text
Title                                    : italian forced
Language                                 : Italian
Default                                  : No
Forced                                   : No

Text #4
ID                                       : 7
Format                                   : UTF-8
Codec ID                                 : S_TEXT/UTF8
Codec ID/Info                            : UTF-8 Plain Text
Default                                  : No
Forced                                   : No

Menu
00:00:00.000                             : en:Bad Dreams
00:06:08.952                             : en:Job Hunt
00:17:35.513                             : en:Harem Trouble
00:27:52.713                             : en:Urine Test
00:38:23.968                             : en:Traveling Salesman
00:49:25.588                             : en:Lies
00:54:33.187                             : en:Lies Detected
01:04:40.085                             : en:Celebration
01:16:58.948                             : en:Paradise
01:25:57.152                             : en:Disturbing Revelations
01:33:40.198                             : en:Losing Control
01:40:22.725                             : en:Payback/End Credits























[youtube]http://www.youtube.com/watch?v=XbS7M4-Y87Y[/youtube]



LINK:

ed2k: Harsh.Times.(2005).BDRip.1080p.AC3.x264-Shiv@.mkv  [7.96 Gb]
Imagem

Responder

Voltar para “Alta Definição // High Definition (Sem Legendas/Without Subtitles)”