You Were Never Really Here (2017) [REMUX] *1080p BluRay* - FGT

1080p (a1080p, 1080p)
Qualquer Alta Resolução // Any High Definition release, be it full (BD, HDDVD, HDTV stream, BDRip, HDDVDRip, HDTVRip)

Moderador: Moderador

Responder
Avatar do Utilizador
Lost_Rider34
Administrador
Administrador
Mensagens: 10618
Registado: 15 out 2008, 14:07
Localização: Aqui
Contacto:

You Were Never Really Here (2017) [REMUX] *1080p BluRay* - FGT

Mensagem por Lost_Rider34 » 04 mai 2018, 12:04

Imagem

O filme segue um sofrido veterano de guerra, que atualmente é um libertador freelance de mulheres traficadas para o comércio do sexo. Quando um trabalho realizado em Manhattan dá errado, uma tempestade de violência e poder corrupto é desencadeada contra ele, agitando uma vingança que pode ser o seu despertar.

A traumatized veteran, unafraid of violence, tracks down missing girls for a living. When a job spins out of control, Joe's nightmares overtake him as a conspiracy is uncovered leading to what may be his death trip or his awakening.


imdb.com
You Were Never Really Here (2017)

Capa
Sinopse:Balancing between feverish dreamlike hallucinations of a tormented past and a grim disoriented reality, the grizzled Joe--a traumatised Gulf War veteran and now an unflinching hired gun who lives with his frail elderly mother--has just finished ye...
Pontuação:6.9
Duração:89 minutos
Idioma:English
Realizador:Lynne Ramsay
Actores:Joaquin Phoenix, Dante Pereira-Olson, Larry Canady, Vinicius Damasceno, Neo Randall
  
Fonte:http://www.imdb.com/title/tt5742374
Última Actualização:Domingo Junho 03, 2018 16:41


Código: Selecionar todos

Video
 ID                                       : 1
 Format                                   : AVC
 Format/Info                              : Advanced Video Codec
 Format profile                           : High@L4.1
 Format settings                          : CABAC / 4 Ref Frames
 Format settings, CABAC                   : Yes
 Format settings, ReFrames                : 4 frames
 Codec ID                                 : V_MPEG4/ISO/AVC
 Duration                                 : 1 h 29 min
 Bit rate mode                            : Variable
 Bit rate                                 : 24.8 Mb/s
 Maximum bit rate                         : 30.0 Mb/s
 Width                                    : 1 920 pixels
 Height                                   : 1 080 pixels
 Display aspect ratio                     : 16:9
 Frame rate mode                          : Constant
 Frame rate                               : 24.000 FPS
 Standard                                 : NTSC
 Color space                              : YUV
 Chroma subsampling                       : 4:2:0
 Bit depth                                : 8 bits
 Scan type                                : Progressive
 Bits/(Pixel*Frame)                       : 0.497
 Stream size                              : 15.5 GiB (83%)
 Title                                    : You.Were.Never.Really.2017.1080p.BluRay.REMUX.AVC.DTS-HD.MA.5.1-FGT
 Language                                 : English
 Default                                  : Yes
 Forced                                   : No
 Color range                              : Limited
 Color primaries                          : BT.709
 Transfer characteristics                 : BT.709
 Matrix coefficients                      : BT.709

 Audio #1
 ID                                       : 2
 Format                                   : DTS
 Format/Info                              : Digital Theater Systems
 Format profile                           : MA / Core
 Codec ID                                 : A_DTS
 Duration                                 : 1 h 29 min
 Bit rate mode                            : Variable / Constant
 Bit rate                                 : 3 393 kb/s / 1 509 kb/s
 Channel(s)                               : 6 channels
 Channel positions                        : Front: L C R, Side: L R, LFE
 Sampling rate                            : 48.0 kHz
 Frame rate                               : 93.750 FPS (512 SPF)
 Bit depth                                : 24 bits
 Compression mode                         : Lossless / Lossy
 Stream size                              : 2.12 GiB (11%)
 Title                                    : You.Were.Never.Really.2017.1080p.BluRay.REMUX.AVC.DTS-HD.MA.5.1-FGT
 Language                                 : English
 Default                                  : Yes
 Forced                                   : No

 Audio #2
 ID                                       : 3
 Format                                   : DTS
 Format/Info                              : Digital Theater Systems
 Codec ID                                 : A_DTS
 Duration                                 : 1 h 29 min
 Bit rate mode                            : Constant
 Bit rate                                 : 1 509 kb/s
 Channel(s)                               : 6 channels
 Channel positions                        : Front: L C R, Side: L R, LFE
 Sampling rate                            : 48.0 kHz
 Frame rate                               : 93.750 FPS (512 SPF)
 Bit depth                                : 24 bits
 Compression mode                         : Lossy
 Stream size                              : 966 MiB (5%)
 Title                                    : You.Were.Never.Really.2017.1080p.BluRay.REMUX.AVC.DTS-HD.MA.5.1-FGT
 Language                                 : English
 Default                                  : No
 Forced                                   : No

 Text
 ID                                       : 4
 Format                                   : UTF-8
 Codec ID                                 : S_TEXT/UTF8
 Codec ID/Info                            : UTF-8 Plain Text
 Duration                                 : 1 h 20 min
 Bit rate                                 : 23 b/s
 Count of elements                        : 502
 Stream size                              : 13.8 KiB (0%)
 Title                                    : English-SRT
 Language                                 : English
 Default                                  : Yes
 Forced                                   : No

 Menu
 00:00:00.000                             : en:Chapter 1
 00:11:50.291                             : en:Chapter 2
 00:22:44.375                             : en:Chapter 3
 00:31:55.833                             : en:Chapter 4
 00:42:47.375                             : en:Chapter 5
 00:53:22.583                             : en:Chapter 6
 01:01:47.250                             : en:Chapter 7
 01:09:53.625                             : en:Chapter 8


Imagem Imagem
Imagem Imagem
Imagem Imagem

phpBB [video]



LINKS:

ed2k: You.Were.Never.Really.Here.2017.1080p.BluRay.REMUX.AVC.DTS-HD.MA.5.1-FGT.mkv  [18.54 Gb]
ed2k: You.Were.Never.Really.Here.2017.1080p.BluRay.REMUX.AVC.DTS-HD.MA.5.1-FGT.nfo  [5.0 Kb]
Imagem

Imagem

Responder

Voltar para “Alta Definição // High Definition (Sem Legendas/Without Subtitles)”