Kenny Rogers The Journey (2006) *DVDRip* - deadbodyman

Moderador: Moderador

Responder
deadbodyman

Kenny Rogers The Journey (2006) *DVDRip* - deadbodyman

Mensagem por deadbodyman » 11 set 2009, 00:26

Imagem

http://www.imdb.com/title/tt0850304/
Kenny Rogers: The Journey is a solid and engaging account of Rogers' lengthy career in music, certain to teach any viewer something they didn't know about the many chapters in the superstar's life as an artist. A documentary, The Journey is a mix of concert footage (most of it archival) and interviews with Rogers, as well as numerous insights from key people in his history of making hit records. The overall message is that Rogers has been a class act from the very beginning, certain of his work ethic as well as his talent and ability to choose the right collaborators. High points include Rogers' reunion with the Bobby Doyle Three, the jazz-vocal group he joined right out of high school, and a smooth duet with Willie Nelson on Irving Berlin's "Blue Skies" (a performance in which Rogers resurrects his old skills playing upright bass). There's a lot of discussion about Rogers' instincts for finding great duet partners of the female variety: Dottie West, Kim Carnes, Dolly Parton, and even Sheena Easton (who, apparently, didn't get along with Rogers too well). Various insights about the early stages of Rogers' musical evolution are very interesting, especially his comments about the pop-folk group the New Christy Minstrels proving too restricting, giving rise to Rogers' soft-rock band the First Edition, followed by a solo career he feared would become "too country" with his smash hit, "Lucille." Also a lot of fun: Lionel Richie's self-effacing account of producing Rogers' successful attempt at a country-R&B crossover, "Lady." --Tom Keogh

Código: Selecionar todos

General
Complete name                    : Kenny.Rogers.The.Journey.(2006).DVDRip.AC3.XviD-deadbodyman.avi
Format                           : AVI
Format/Info                      : Audio Video Interleave
File size                        : 1.46 GiB
Duration                         : 1h 35mn
Overal bit rate                  : 2182 Kbps
Writing application              : VirtualDubMod 1.5.4.1 (build 2178/release)
Writing library                  : VirtualDubMod build 2178/release

Video
Format                           : MPEG-4 Visual
Format profile                   : Streaming Video@L1
Format settings, BVOP            : Yes
Format settings, QPel            : No
Format settings, GMC             : No warppoints
Format settings, Matrix          : Custom
Codec ID                         : XVID
Codec ID/Hint                    : XviD
Duration                         : 1h 35mn
Bit rate                         : 1727 Kbps
Width                            : 720 pixels
Height                           : 416 pixels
Display aspect ratio             : 16/9
Frame rate                       : 23.976 fps
Resolution                       : 8 bits
Colorimetry                      : 4:2:0
Scan type                        : Progressive
Bits/(Pixel*Frame)               : 0.240
Stream size                      : 1.15 GiB
Writing library                  : XviD 50

Audio
Format                           : AC-3
Format/Info                      : Audio Coding 3
Codec ID                         : 2000
Duration                         : 1h 35mn
Bit rate mode                    : Constant
Bit rate                         : 448 Kbps
Channel(s)                       : 6 channels
Channel positions                : Front: L C R, Rear: L R, LFE
Sampling rate                    : 48.0 KHz
Stream size                      : 307 MiB

Imagem

Imagem

Imagem

Imagem

ed2k: Kenny.Rogers.The.Journey.(2006).DVDRip.AC3.XviD-deadbodyman.avi  [1.46 Gb]

Avatar do Utilizador
Barefaced
Administrador
Administrador
Mensagens: 33235
Registado: 06 jul 2007, 17:43
Localização: @ Home
Contacto:

Kenny Rogers The Journey (2006) *DVDRip* - deadbodyman

Mensagem por Barefaced » 11 set 2009, 00:51

great movie about K.R.
:thanx:
Imagem

Responder

Voltar para “Concertos // Vídeo Clips // Music Video Releases”

Quem está ligado:

Utilizadores neste fórum: Nenhum utilizador registado e 4 visitantes