Roger Glover And The Guilty Party - If Life Was Easy (2011)

Formatos Lossless // File formats (FLAC, WAV, MLP, APE, TTA, ALS, etc.)

Moderador: Moderador

Responder
rat24

Roger Glover And The Guilty Party - If Life Was Easy (2011)

Mensagem por rat24 » 19 ago 2011, 14:13

Imagem

Артист: Roger Glover And The Guilty Party
Альбом: If Life Was Easy, 2011
Жанр: rock/folk/blues
Формат файла: eac-flac
Ссылка: CD 11 clicks
Нахождение: eDonkey


Roger Glover And The Guilty Party - [If Life Was Easy #01] Don't Look Now (Everything Has Changed)
Roger Glover And The Guilty Party - [If Life Was Easy #02] The Dream I Had
Roger Glover And The Guilty Party - [If Life Was Easy #03] Moonlight
Roger Glover And The Guilty Party - [If Life Was Easy #04] The Car Won't Start
Roger Glover And The Guilty Party - [If Life Was Easy #05] Box Of Tricks
Roger Glover And The Guilty Party - [If Life Was Easy #06] If Life Was Easy
Roger Glover And The Guilty Party - [If Life Was Easy #07] Stand Together
Roger Glover And The Guilty Party - [If Life Was Easy #08] Welcome To The Moon
Roger Glover And The Guilty Party - [If Life Was Easy #09] Set Your Imagination Free
Roger Glover And The Guilty Party - [If Life Was Easy #10] When Life Gets To The Bone
Roger Glover And The Guilty Party - [If Life Was Easy #11] When The Day Is Done
Roger Glover And The Guilty Party - [If Life Was Easy #12] Get Away (Can't Let You)
Roger Glover And The Guilty Party - [If Life Was Easy #13] Staring Into Space
Roger Glover And The Guilty Party - [If Life Was Easy #14] The Ghost Of Your Smile
Roger Glover And The Guilty Party - [If Life Was Easy #15] Cruel World
Roger Glover And The Guilty Party - [If Life Was Easy #16] Feel Like A King


[spoiler]SPOILER!
Exact Audio Copy V1.0 beta 2 from 29. April 2011

EAC extraction logfile from 16. August 2011, 16:52

Roger Glover And The Guilty Party / If Life Was Easy

Used drive : HL-DT-STDVD-RAM GH22NP20 Adapter: 0 ID: 0

Read mode : Secure
Utilize accurate stream : Yes
Defeat audio cache : Yes
Make use of C2 pointers : No

Read offset correction : 102
Overread into Lead-In and Lead-Out : No
Fill up missing offset samples with silence : Yes
Delete leading and trailing silent blocks : No
Null samples used in CRC calculations : Yes
Used interface : Installed external ASPI interface

Used output format : Internal WAV Routines
Sample format : 44.100 Hz; 16 Bit; Stereo

TOC of the extracted CD

Track | Start | Length | Start sector | End sector
---------------------------------------------------------
1 | 0:00.00 | 4:06.00 | 0 | 18449
2 | 4:06.00 | 3:28.00 | 18450 | 34049
3 | 7:34.00 | 2:48.00 | 34050 | 46649
4 | 10:22.00 | 3:34.00 | 46650 | 62699
5 | 13:56.00 | 3:34.00 | 62700 | 78749
6 | 17:30.00 | 2:31.00 | 78750 | 90074
7 | 20:01.00 | 4:47.00 | 90075 | 111599
8 | 24:48.00 | 2:33.00 | 111600 | 123074
9 | 27:21.00 | 3:36.00 | 123075 | 139274
10 | 30:57.00 | 2:59.00 | 139275 | 152699
11 | 33:56.00 | 2:57.00 | 152700 | 165974
12 | 36:53.00 | 3:29.00 | 165975 | 181649
13 | 40:22.00 | 3:40.00 | 181650 | 198149
14 | 44:02.00 | 4:31.00 | 198150 | 218474
15 | 48:33.00 | 2:21.00 | 218475 | 229049
16 | 50:54.00 | 3:44.00 | 229050 | 245849

Range status and errors

Selected range

Filename K:\Documents and Settings\Мои документы\Roger Glover And The Guilty Party - If Life Was Easy.flac.covers.by.rat.lossless-muz.ucoz.com\Roger Glover And The Guilty Party - If Life Was Easy.flac.covers.by.rat.lossless-muz.ucoz.wav

Peak level 99.9 %
Extraction speed 2.9 X
Range quality 100.0 %
Copy CRC 1C096E2A
Copy OK

No errors occurred

AccurateRip summary

Track 1 not present in database
Track 2 not present in database
Track 3 not present in database
Track 4 not present in database
Track 5 not present in database
Track 6 not present in database
Track 7 not present in database
Track 8 not present in database
Track 9 not present in database
Track 10 not present in database
Track 11 not present in database
Track 12 not present in database
Track 13 not present in database
Track 14 not present in database
Track 15 not present in database
Track 16 not present in database

None of the tracks are present in the AccurateRip database

End of status report
[/spoiler]

ed2k: Roger.Glover.And.The.Guilty.Party.-.If.Life.Was.Easy.flac.covers.by.rat.lossless-muz.ucoz.com.rar  [408.15 Mb]

Responder

Voltar para “Álbuns Lossless // Lossless Complete Albums”