Jeff Lynne and Friends - Every Little Thing (2010)

Formatos Lossless // File formats (FLAC, WAV, MLP, APE, TTA, ALS, etc.)

Moderador: Moderador

Responder
rat24

Jeff Lynne and Friends - Every Little Thing (2010)

Mensagem por rat24 » 11 ago 2011, 20:41

Imagem

Артист: Jeff Lynne and Friends
Альбом: Every Little Thing, 2010
Жанр: rock
Формат файла: eac-flac
Нахождение: eDonkey


01. Jeff Lynne - Every Little Thing (12" Remix) [0:07:49.00]
02. Duane Eddy - Rockabilly Holiday [0:03:50.00]
03. Roy Orbison - Heartbreak Radio [0:03:01.00]
04. Miss B Haven - Sand in My Eyes [0:03:21.00]
05. Jeff Lynne - Borderline [0:02:22.00]
06. Jimmy Nail - Blue Beyound the Grey [0:03:36.00]
07. Miss B Haven - Nobody's Angel [0:03:23.00]
08. Duane Eddy - The Trembler [0:03:34.00]
09. Jeff Lynne - I'm Gone [0:02:53.00]
10. Jeff Lynne - Sirens [0:03:58.00]
11. Duane Eddy - Theme from Something Really Important [0:04:15.00]
12. Jim Horn - Work It Out [0:03:23.00]
13. Miss B Haven - You're Wrong [0:03:40.00]
14. Roy Orbison - I Drove All Night [0:03:50.00]
15. Jeff Lynne - Lift Me Up [0:03:36.00]

SPOILER!
[spoiler][PHP]Exact Audio Copy V1.0 beta 2 from 29. April 2011

EAC extraction logfile from 8. August 2011, 20:56

Jeff Lynne and Friends / : Every Little Thing.

Used drive : HL-DT-STDVD-RAM GH22NP20 Adapter: 0 ID: 0

Read mode : Secure
Utilize accurate stream : Yes
Defeat audio cache : Yes
Make use of C2 pointers : No

Read offset correction : 102
Overread into Lead-In and Lead-Out : No
Fill up missing offset samples with silence : Yes
Delete leading and trailing silent blocks : No
Null samples used in CRC calculations : Yes
Used interface : Installed external ASPI interface

Used output format : Internal WAV Routines
Sample format : 44.100 Hz; 16 Bit; Stereo


TOC of the extracted CD

Track | Start | Length | Start sector | End sector
---------------------------------------------------------
1 | 0:00.00 | 7:49.00 | 0 | 35174
2 | 7:49.00 | 3:50.00 | 35175 | 52424
3 | 11:39.00 | 3:01.00 | 52425 | 65999
4 | 14:40.00 | 3:21.00 | 66000 | 81074
5 | 18:01.00 | 2:22.00 | 81075 | 91724
6 | 20:23.00 | 3:36.00 | 91725 | 107924
7 | 23:59.00 | 3:23.00 | 107925 | 123149
8 | 27:22.00 | 3:34.00 | 123150 | 139199
9 | 30:56.00 | 2:53.00 | 139200 | 152174
10 | 33:49.00 | 3:58.00 | 152175 | 170024
11 | 37:47.00 | 4:15.00 | 170025 | 189149
12 | 42:02.00 | 3:23.00 | 189150 | 204374
13 | 45:25.00 | 3:40.00 | 204375 | 220874
14 | 49:05.00 | 3:50.00 | 220875 | 238124
15 | 52:55.00 | 3:36.00 | 238125 | 254324


Range status and errors

Selected range

Filename K:\Documents and Settings\Мои документы\Jeff Lynne and Friends - - Every Little Thing.flac.covers.by.rat.lossless-muz.ucoz.com\Jeff Lynne and Friends - - Every Little Thing..wav

Peak level 100.0 %
Extraction speed 2.9 X
Range quality 100.0 %
Copy CRC 6D9B7A56
Copy OK

No errors occurred


AccurateRip summary

Track 1 not present in database
Track 2 not present in database
Track 3 not present in database
Track 4 not present in database
Track 5 not present in database
Track 6 not present in database
Track 7 not present in database
Track 8 not present in database
Track 9 not present in database
Track 10 not present in database
Track 11 not present in database
Track 12 not present in database
Track 13 not present in database
Track 14 not present in database
Track 15 not present in database

None of the tracks are present in the AccurateRip database

End of status report[/PHP][/spoiler]

ed2k: Jeff Lynne and Friends - - Every Little Thing.flac.covers.by.rat.lossless-muz.ucoz.com.rar  [376.46 Mb]

Responder

Voltar para “Álbuns Lossless // Lossless Complete Albums”