VA - Informers [ost] (2009)

Formatos Lossless // File formats (FLAC, WAV, MLP, APE, TTA, ALS, etc.)

Moderador: Moderador

Responder
rat24

VA - Informers [ost] (2009)

Mensagem por rat24 » 28 jul 2011, 16:46

Imagem

Audio CD (April 28, 2009)
Original Release Date: 2009
Number of Discs: 1
Format: eac-flac covers
Label: Lakeshore Records


[spoiler]
I rented the Film called, " The Informers" because it had a "all star cast", after watching the horrible movie, I very much enjoyed the early 1980's songs that were played through out this bad movie. It brought back alot of memories for me, as I lived in California during the time that this movie supposedly took place. Alot of the music played on this soundtrack, you cannot hear on regular radio anymore, so if you don't want to order satellite radio, or buy a HD radio, this is a variety of what you can call a "greatest Hits of the 1980's", C.D...
[/spoiler]

01. New Gold Dream [Simple Minds] [0:05:39.59]
02. Dance Hall Days [Wang Chung] [0:03:59.62]
03. Shadows of the Night [Pat Benetar] [0:03:43.34]
04. Only You [David Palmer, Justin Mendal-Johnsen, Jason Falkner, Justin Stanley] [0:05:19.26]
05. Safety Dance [Men Without Hats] [0:02:43.71]
06. I Ran (So Far Away) [A Flock of Seagulls] [0:05:07.43]
07. Cars [Gary Numan] [0:03:57.55]
08. The Devil Made Me Do It [7Ray] [0:03:24.52]
09. Gone for Good [Justin Mendal-Johnsen, Jason Falkner, Justin Stanley] [0:00:47.28]
10. Another Night [Justin Mendal-Johnsen, Jason Falkner, Justin Stanley] [0:03:38.53]
11. In a Scarlet Sky [Informers End Credits Version] [7Ray] [0:07:09.55]



[spoiler]

Código: Selecionar todos

Exact Audio Copy V1.0 beta 2 from 29. April 2011

EAC extraction logfile from 28. July 2011, 17:30

Various Artists / Informers OST

Used drive  : HL-DT-STDVD-RAM GH22NP20   Adapter: 0  ID: 0

Read mode               : Secure
Utilize accurate stream : Yes
Defeat audio cache      : Yes
Make use of C2 pointers : No

Read offset correction                      : 102
Overread into Lead-In and Lead-Out          : No
Fill up missing offset samples with silence : Yes
Delete leading and trailing silent blocks   : No
Null samples used in CRC calculations       : Yes
Used interface                              : Installed external ASPI interface

Used output format : Internal WAV Routines
Sample format      : 44.100 Hz; 16 Bit; Stereo


TOC of the extracted CD

     Track |   Start  |  Length  | Start sector | End sector
    ---------------------------------------------------------
        1  |  0:00.00 |  5:39.59 |         0    |    25483   
        2  |  5:39.59 |  3:59.62 |     25484    |    43470   
        3  |  9:39.46 |  3:43.34 |     43471    |    60229   
        4  | 13:23.05 |  5:19.26 |     60230    |    84180   
        5  | 18:42.31 |  2:43.71 |     84181    |    96476   
        6  | 21:26.27 |  5:07.43 |     96477    |   119544   
        7  | 26:33.70 |  3:57.55 |    119545    |   137374   
        8  | 30:31.50 |  3:24.52 |    137375    |   152726   
        9  | 33:56.27 |  0:47.28 |    152727    |   156279   
       10  | 34:43.55 |  3:38.53 |    156280    |   172682   
       11  | 38:22.33 |  7:09.55 |    172683    |   204912   


Range status and errors

Selected range

     Filename K:\Documents and Settings\Мои документы\Various Artists - Informers OST.flac.covers.by.rat.lossless-muz.ucoz.com\Various Artists - Informers OST.flac.covers.by.rat.lossless-muz.ucoz.wav

     Peak level 100.0 %
     Extraction speed 2.8 X
     Range quality 100.0 %
     Copy CRC 3EA8B1D5
     Copy OK

No errors occurred

 
AccurateRip summary
 
Track  1  cannot be verified as accurate (confidence 1)  [DF4A25F5], AccurateRip returned [52860271]  (AR v2)
Track  2  cannot be verified as accurate (confidence 1)  [40729BF5], AccurateRip returned [C134CC9E]  (AR v2)
Track  3  cannot be verified as accurate (confidence 1)  [C7E0C6E4], AccurateRip returned [474CB341]  (AR v2)
Track  4  cannot be verified as accurate (confidence 1)  [46E45883], AccurateRip returned [3365F7FA]  (AR v2)
Track  5  cannot be verified as accurate (confidence 1)  [B1A45D79], AccurateRip returned [01E80836]  (AR v2)
Track  6  cannot be verified as accurate (confidence 1)  [3BC86978], AccurateRip returned [7C2DF93A]  (AR v2)
Track  7  cannot be verified as accurate (confidence 1)  [856DF4A6], AccurateRip returned [17687D64]  (AR v2)
Track  8  cannot be verified as accurate (confidence 1)  [BDEDDDA7], AccurateRip returned [710901A6]  (AR v2)
Track  9  cannot be verified as accurate (confidence 1)  [B36EE9BC], AccurateRip returned [27EB5B7D]  (AR v2)
Track 10  cannot be verified as accurate (confidence 1)  [0EFCE2EF], AccurateRip returned [FB741FB0]  (AR v2)
Track 11  cannot be verified as accurate (confidence 1)  [184DED89], AccurateRip returned [7ABB0E01]  (AR v2)
 
No tracks could be verified as accurate
You may have a different pressing from the one(s) in the database

End of status report
[/spoiler]

ed2k: Various.Artists.-.Informers.OST.flac.covers.by.rat.lossless-muz.ucoz.com.rar  [322.28 Mb]

Responder

Voltar para “Álbuns Lossless // Lossless Complete Albums”