Status Quo - Quid Pro Quo (2011) [Flac}

Formatos Lossless // File formats (FLAC, WAV, MLP, APE, TTA, ALS, etc.)

Moderador: Moderador

Responder
rat24

Status Quo - Quid Pro Quo (2011) [Flac}

Mensagem por rat24 » 19 jul 2011, 17:51

Imagem

Format: CD
Country: UK
Style: Rock'n'roll
Quality: Flac

[spoiler]
Quid Pro Quo ends the longest wait for a new Status Quo album since the legendary band's first hit in 1969, following on four years after 2007's In Search Of The Fourth Chord. It marks a return to Quo recording duties for frontman, Francis Rossi, after his solo album One Step At A Time. Prior to the album's release, a charity single, In The Army Now 2010, and a free download, "Rock 'n' Roll 'n' You", were released with the latter generating much interest in the Quo community.
Over the years since the reformation of the band in 1986 (and quite possibly prior to that) there has been much consternation in the Quo fan community about the quality of the band's output, and various debates have raged regarding the sorts of tracks the band has laid down and whether some members of the band are up to the job. Therefore, watching the debates that raged about whether this album was the long-awaited 'return to form' did not surprise me. The going rumour prior to release was that this would be the most rocking Status Quo album in years.

The album, when it arrived, did not disappoint on its promise. There is rock in abundance here! The overall sound is generally what you'd expect from Quo. In comparing it to In Search Of The Fourth Chord I notice that is a little more of an echo soak here but this may just be taking the edge off of the years on vocals. However, as a counter to that, it should be noted that in terms of vocal performance, this album blows its predecessor out of the water. It feels like Rossi and Parfitt had more fun recording this album, and some of Parfitt's vocals in particular are top class.
"Two Way Traffic" - A fast paced standard rock song and one that has proved popular with many on the message boards since the album's release. The chorus is quite catchy but the song as a whole isn't really my thing—I like the Quo boogie shuffle or pop happy sounds and this isn't really that.
"Rock 'n' Roll 'n' You" - This track, released as a free download prior to release, is an archetypal Quo track, with the unmistakable rhythm of boogie-shuffle. The track is likeable if not spectacular, the lyrics are nothing to write home about and the solo is a tad short but generally the track is OK and I have often found myself humming the chorus under my breath.
[/spoiler]

01. Two Way Traffic [0:03:59.00]
02. Rock 'n' Roll 'n' You [0:03:27.00]
03. Dust to Gold [0:04:51.00]
04. Let's Rock [0:04:27.00]
05. Can't See for Looking [0:03:54.00]
06. Better Than That [0:03:17.00]
07. Movin' On [0:04:06.00]
08. Leave a Little Light On [0:04:04.00]
09. Any Way You Like It [0:03:17.00]
10. Frozen Hero [0:04:20.00]
11. Reality Cheque [0:04:05.00]
12. The Winner [0:03:17.00]
13. It's All About You [0:02:53.00]
14. My Old Ways [0:03:04.00]
15. In the Army Now (2010) [0:04:22.00]


[spoiler]

Código: Selecionar todos

Exact Audio Copy V1.0 beta 2 from 29. April 2011

EAC extraction logfile from 15. July 2011, 14:01

Status Quo /  Quid Pro Quo

Used drive  : HL-DT-STDVD-RAM GH22NP20   Adapter: 0  ID: 0

Read mode               : Secure
Utilize accurate stream : Yes
Defeat audio cache      : Yes
Make use of C2 pointers : No

Read offset correction                      : 102
Overread into Lead-In and Lead-Out          : No
Fill up missing offset samples with silence : Yes
Delete leading and trailing silent blocks   : No
Null samples used in CRC calculations       : Yes
Used interface                              : Installed external ASPI interface

Used output format : Internal WAV Routines
Sample format      : 44.100 Hz; 16 Bit; Stereo


TOC of the extracted CD

     Track |   Start  |  Length  | Start sector | End sector
    ---------------------------------------------------------
        1  |  0:00.00 |  3:59.00 |         0    |    17924   
        2  |  3:59.00 |  3:27.00 |     17925    |    33449   
        3  |  7:26.00 |  4:51.00 |     33450    |    55274   
        4  | 12:17.00 |  4:27.00 |     55275    |    75299   
        5  | 16:44.00 |  3:54.00 |     75300    |    92849   
        6  | 20:38.00 |  3:17.00 |     92850    |   107624   
        7  | 23:55.00 |  4:06.00 |    107625    |   126074   
        8  | 28:01.00 |  4:04.00 |    126075    |   144374   
        9  | 32:05.00 |  3:17.00 |    144375    |   159149   
       10  | 35:22.00 |  4:20.00 |    159150    |   178649   
       11  | 39:42.00 |  4:05.00 |    178650    |   197024   
       12  | 43:47.00 |  3:17.00 |    197025    |   211799   
       13  | 47:04.00 |  2:53.00 |    211800    |   224774   
       14  | 49:57.00 |  3:04.00 |    224775    |   238574   
       15  | 53:01.00 |  4:22.00 |    238575    |   258224   


Range status and errors

Selected range

     Filename K:\Documents and Settings\Мои документы\David Sylvian - Died in the Wool.2cd.flac.covers.by.rat.lossless-muz.ucoz.com\Status Quo -  Quid Pro Quo..flac.covers.by.rat.lossless-muz.ucoz.wav

     Peak level 100.0 %
     Extraction speed 2.9 X
     Range quality 100.0 %
     Copy CRC A8900835
     Copy OK

No errors occurred

 
AccurateRip summary
 
Track  1  not present in database
Track  2  not present in database
Track  3  not present in database
Track  4  not present in database
Track  5  not present in database
Track  6  not present in database
Track  7  not present in database
Track  8  not present in database
Track  9  not present in database
Track 10  not present in database
Track 11  not present in database
Track 12  not present in database
Track 13  not present in database
Track 14  not present in database
Track 15  not present in database
 
None of the tracks are present in the AccurateRip database

End of status report
[/spoiler]

ed2k: Status.Quo.-.Quid.Pro.Quo..flac.covers.by.rat.lossless-muz.ucoz.com.rar  [440.65 Mb]

Responder

Voltar para “Álbuns Lossless // Lossless Complete Albums”