Azul Y Negro - La Edad De Los Colores (rem.) (1981)

Formatos Lossless // File formats (FLAC, WAV, MLP, APE, TTA, ALS, etc.)

Moderador: Moderador

Responder
rat24

Azul Y Negro - La Edad De Los Colores (rem.) (1981)

Mensagem por rat24 » 11 jul 2011, 21:15

Imagem

Artist: Azul Y Negro
Album: La Edad De Los Colores (rem.)
Released: 2000
Genre: euro dance/pop
Format: eac-flac -covers


[spoiler]
This album was an international release, and was an instant chart success. Thanks to the single “Me Estoy Volviendo Loco” (Going Crazy) which became a hit in Europe, Japan, United States and Australia.
"Digital" was a collection from the first two albums, and included songs like: "No Tengo Tiempo", "La Torre de Madrid", "let`s spend THE NIGHT together" (La Noche), and a couple of catchy instrumental tracks.
[/spoiler]

01. Me Estoy Volviendo Loco (extended remix) [0:06:10.00]
02. Paso A Paso [0:03:53.00]
03. Secuencias [0:04:00.00]
04. Flash [0:03:36.00]
05. Paraiso Perdido [0:03:48.00]
06. Con Los Dedos De Uno Mano [0:03:42.00]
07. No Queda Pas [0:03:31.00]
08. Television [0:03:16.00]
09. Agujas Plateadas [0:02:19.00]
10. Mona Lisa [0:03:12.00]
11. El Misterio De La Piramide [0:03:50.00]
12. Mar De La Tranquilidad [0:04:10.00]
13. El Color Del Tango [0:02:40.00]
14. La Torre De Madrid (original version 1981) [0:03:07.00]
15. Catedral De Sal (original version 1981) [0:03:38.00]
16. No Controlo Nada (original version 1981) [0:03:41.00]


[spoiler]

Código: Selecionar todos

Exact Audio Copy V1.0 beta 2 from 29. April 2011

EAC extraction logfile from 10. July 2011, 17:40

Azul Y Negro / La Edad De Los Colores

Used drive  : HL-DT-STDVD-RAM GH22NP20   Adapter: 0  ID: 0

Read mode               : Secure
Utilize accurate stream : Yes
Defeat audio cache      : Yes
Make use of C2 pointers : No

Read offset correction                      : 102
Overread into Lead-In and Lead-Out          : No
Fill up missing offset samples with silence : Yes
Delete leading and trailing silent blocks   : No
Null samples used in CRC calculations       : Yes
Used interface                              : Installed external ASPI interface

Used output format : Internal WAV Routines
Sample format      : 44.100 Hz; 16 Bit; Stereo


TOC of the extracted CD

     Track |   Start  |  Length  | Start sector | End sector
    ---------------------------------------------------------
        1  |  0:00.00 |  6:10.00 |         0    |    27749   
        2  |  6:10.00 |  3:53.00 |     27750    |    45224   
        3  | 10:03.00 |  4:00.00 |     45225    |    63224   
        4  | 14:03.00 |  3:36.00 |     63225    |    79424   
        5  | 17:39.00 |  3:48.00 |     79425    |    96524   
        6  | 21:27.00 |  3:42.00 |     96525    |   113174   
        7  | 25:09.00 |  3:31.00 |    113175    |   128999   
        8  | 28:40.00 |  3:16.00 |    129000    |   143699   
        9  | 31:56.00 |  2:19.00 |    143700    |   154124   
       10  | 34:15.00 |  3:12.00 |    154125    |   168524   
       11  | 37:27.00 |  3:50.00 |    168525    |   185774   
       12  | 41:17.00 |  4:10.00 |    185775    |   204524   
       13  | 45:27.00 |  2:40.00 |    204525    |   216524   
       14  | 48:07.00 |  3:07.00 |    216525    |   230549   
       15  | 51:14.00 |  3:38.00 |    230550    |   246899   
       16  | 54:52.00 |  3:41.00 |    246900    |   263474   


Range status and errors

Selected range

     Filename K:\Documents and Settings\Мои документы\Azul Y Negro - La Edad De Los Colores..by.rat.eac-ape.lossless-muz.ucoz.com\Azul Y Negro - La Edad De Los Colores..by.rat.eac-ape.lossless-muz.ucoz.wav

     Peak level 100.0 %
     Extraction speed 2.9 X
     Range quality 100.0 %
     Copy CRC D4ED28B7
     Copy OK

No errors occurred

 
AccurateRip summary
 
Track  1  not present in database
Track  2  not present in database
Track  3  not present in database
Track  4  not present in database
Track  5  not present in database
Track  6  not present in database
Track  7  not present in database
Track  8  not present in database
Track  9  not present in database
Track 10  not present in database
Track 11  not present in database
Track 12  not present in database
Track 13  not present in database
Track 14  not present in database
Track 15  not present in database
Track 16  not present in database
 
None of the tracks are present in the AccurateRip database

End of status report
[/spoiler]

ed2k: Azul.Y.Negro.-.La.Edad.De.Los.Colores.Covers.by.rat.eac-ape.lossless-muz.ucoz.com.rar  [357.68 Mb]

Responder

Voltar para “Álbuns Lossless // Lossless Complete Albums”