The Beatles – Meet The Threetles (2003)

Formatos Lossless // File formats (FLAC, WAV, MLP, APE, TTA, ALS, etc.)

Moderador: Moderador

Responder
rat24

The Beatles – Meet The Threetles (2003)

Mensagem por rat24 » 09 jul 2011, 06:38

Imagem


Release Date: 2003
Format: CD, Album, Remastered, Unofficial Release
Length: 77:39
Made In US


Reunion of the three surviving Beatles at the time of the making of The Beatles Anthology as they engage in jam sessions and rework and finish the two Lennon demos, Free As A Bird and Real Love.


01. Raunchy [23 Jun 1994] [0:01:35.71]
02. Thinking of Linking [23 Jun 1994] [0:01:15.60]
03. Blue Moon of Kentucky [23 Jun 1994] [0:01:18.23]
04. Baby, What Do You Want Me to Do [23 Jun 1994] [0:01:45.28]
05. I Will [23 Jun 1994] [0:00:29.16]
06. Dera Duhn [23 Jun 1994] [0:00:37.08]
07. Ain't She Sweet [23 Jun 1994] [0:00:42.56]
08. Free as a Bird [1977 - Original demo used for the 1st "reunion" single] [0:03:29.08]
09. Free as a Bird [Outfake/Acoustic Mix - 11 Feb 1994] [0:04:01.56]
10. Free as a Bird [5.1 Center Channel - 11 Feb 1994] [0:04:29.43]
11. Free as a Bird [5.1 Front Channels - 11 Feb 1994] [0:04:28.60]
12. Free as a Bird [5.1 Rear Channels - 11 Feb 1994] [0:04:28.34]
13. Free as a Bird [Outfake/Enhanced Mix - 11 Feb 1994] [0:04:20.63]
14. Free as a Bird [Video Mix - 11 Feb 1994] [0:04:34.14]
15. Real Love [1979 - Original demo used for the 2nd "reunion" single] [0:04:20.14]
16. Real Love [Outfake/Acoustic Mix - 6 Feb 1995] [0:04:21.72]
17. Real Love [5.1 Center Channel - 7 Feb 1995] [0:04:08.55]
18. Real Love [5.1 Front Channels - 7 Feb 1995] [0:04:08.73]
19. Real Love [5.1 Rear Channels - 7 Feb 1995] [0:04:08.53]
20. Real Love [Outfake/Enhanced Mix - 7 Feb 1995] [0:04:08.53]
21. Real Love [Outfake/Single Mix - Original Speed - 7 Feb 1995] [0:04:09.33]
22. Real Love ["Kevin Goodley" Mix - Threetles backing track w/ Kevin Goodley's - 7 Feb 1995] [0:03:02.44]
23. Real Love [Video Mix - 7 Feb 1995] [0:03:51.61]
24. All Those Years Ago [Outfake/Enhanced Mix - 4 Nov 1981] [0:03:47.33]

[spoiler]

Código: Selecionar todos

Exact Audio Copy V1.0 beta 2 from 29. April 2011

EAC extraction logfile from 6. July 2011, 21:32

Beatles / Meet The Threetles! - bootleg

Used drive  : HL-DT-STDVD-RAM GH22NP20   Adapter: 0  ID: 0

Read mode               : Secure
Utilize accurate stream : Yes
Defeat audio cache      : Yes
Make use of C2 pointers : No

Read offset correction                      : 102
Overread into Lead-In and Lead-Out          : No
Fill up missing offset samples with silence : Yes
Delete leading and trailing silent blocks   : No
Null samples used in CRC calculations       : Yes
Used interface                              : Installed external ASPI interface

Used output format : Internal WAV Routines
Sample format      : 44.100 Hz; 16 Bit; Stereo


TOC of the extracted CD

     Track |   Start  |  Length  | Start sector | End sector
    ---------------------------------------------------------
        1  |  0:00.00 |  1:35.71 |         0    |     7195   
        2  |  1:35.71 |  1:15.60 |      7196    |    12880   
        3  |  2:51.56 |  1:18.23 |     12881    |    18753   
        4  |  4:10.04 |  1:45.28 |     18754    |    26656   
        5  |  5:55.32 |  0:29.16 |     26657    |    28847   
        6  |  6:24.48 |  0:37.08 |     28848    |    31630   
        7  |  7:01.56 |  0:42.56 |     31631    |    34836   
        8  |  7:44.37 |  3:29.08 |     34837    |    50519   
        9  | 11:13.45 |  4:01.56 |     50520    |    68650   
       10  | 15:15.26 |  4:29.43 |     68651    |    88868   
       11  | 19:44.69 |  4:28.60 |     88869    |   109028   
       12  | 24:13.54 |  4:28.34 |    109029    |   129162   
       13  | 28:42.13 |  4:20.63 |    129163    |   148725   
       14  | 33:03.01 |  4:34.14 |    148726    |   169289   
       15  | 37:37.15 |  4:20.14 |    169290    |   188803   
       16  | 41:57.29 |  4:21.72 |    188804    |   208450   
       17  | 46:19.26 |  4:08.55 |    208451    |   227105   
       18  | 50:28.06 |  4:08.73 |    227106    |   245778   
       19  | 54:37.04 |  4:08.53 |    245779    |   264431   
       20  | 58:45.57 |  4:08.53 |    264432    |   283084   
       21  | 62:54.35 |  4:09.33 |    283085    |   301792   
       22  | 67:03.68 |  3:02.44 |    301793    |   315486   
       23  | 70:06.37 |  3:51.61 |    315487    |   332872   
       24  | 73:58.23 |  3:47.33 |    332873    |   349930   


Range status and errors

Selected range

     Filename K:\Documents and Settings\Мои документы\Beatles - Meet The Threetles! - bootleg.by.rat.eac-ape.lossless-muz.ucoz.com.covers\Beatles - Meet The Threetles! - bootleg.by.rat.eac-ape.lossless-muz.ucoz.com.covers.wav

     Peak level 100.0 %
     Extraction speed 3.2 X
     Range quality 100.0 %
     Copy CRC 70C12089
     Copy OK

No errors occurred

 
AccurateRip summary
 
Track  1  not present in database
Track  2  not present in database
Track  3  not present in database
Track  4  not present in database
Track  5  not present in database
Track  6  not present in database
Track  7  not present in database
Track  8  not present in database
Track  9  not present in database
Track 10  not present in database
Track 11  not present in database
Track 12  not present in database
Track 13  not present in database
Track 14  not present in database
Track 15  not present in database
Track 16  not present in database
Track 17  not present in database
Track 18  not present in database
Track 19  not present in database
Track 20  not present in database
Track 21  not present in database
Track 22  not present in database
Track 23  not present in database
Track 24  not present in database
 
None of the tracks are present in the AccurateRip database

End of status report
[/spoiler]

ed2k: Beatles.-.Meet.The.Threetles.bootleg.by.rat.eac-ape.lossless-muz.ucoz.com.covers.rar  [451.80 Mb]

Responder

Voltar para “Álbuns Lossless // Lossless Complete Albums”