Nik Kershaw - To Be Frank (2001)

Formatos Lossless // File formats (FLAC, WAV, MLP, APE, TTA, ALS, etc.)

Moderador: Moderador

Responder
rat24

Nik Kershaw - To Be Frank (2001)

Mensagem por rat24 » 25 jun 2011, 14:40

Imagem

Artist: Nik Kershaw
Album: To Be Frank
Released: 2001
Source: eagle records
Genre: ROCK,Soft
Format: eac.ape,336mb


Review:
[spoiler]
Nik Kershaw rose to success in the mid-'80s, largely based on his two hit singles, "Wouldn't It Be Good" and "I Won't Let the Sun Go Down on Me," only to retreat into obscurity throughout most of the '90s due to a lukewarm reception for his Radio Musicola album. After surfacing in 1999 with a new album, 15 Minutes, Kershaw set out to begin recording again, which resulted in To Be Frank, his album of quirky pop tunes. Feeling more like a last plea to rekindle the success of his past rather than an attempt at something new, To Be Frank is a faceless collection of material that leaves you wondering if anyone even cares anymore. Nik Kershaw's largest talent has always been evident in his songwriting; he even spent much of the '90s writing hit songs for other bands, and that alone carries the album when even the music falters. "Wouldn't It Be Good" is desperately given the acoustic treatment and included near the end of To Be Frank, but even that feels more like a marketing gimmick than a fresh, inventive idea for his lagging pop career. To Be Frank may interest fans of earlier work, but it is plain as day that Kershaw's best work remains in his past.
[/spoiler]
Track List:
1 Wounded 4:20
2 Get Up 4:11
3 Die Laughing 4:39
4 Jane Doe Hawkes 4:22
5 How Sad 4:16
6 Take Me to the Church 4:53
7 Hello World 4:19
8 Already 5:13
9 One Day 5:07
10 All Is Fair 4:13
11 Show Them What You're Made of 4:14
12 Wouldn't It Be Good 4:57


Log:
[spoiler]

Código: Selecionar todos

Exact Audio Copy V1.0 beta 2 from 29. April 2011

EAC extraction logfile from 25. June 2011, 8:27

Nik Kershaw / to be Frank

Used drive  : HL-DT-STDVD-RAM GH22NP20   Adapter: 0  ID: 0

Read mode               : Secure
Utilize accurate stream : Yes
Defeat audio cache      : Yes
Make use of C2 pointers : No

Read offset correction                      : 102
Overread into Lead-In and Lead-Out          : No
Fill up missing offset samples with silence : Yes
Delete leading and trailing silent blocks   : No
Null samples used in CRC calculations       : Yes
Used interface                              : Installed external ASPI interface

Used output format : Internal WAV Routines
Sample format      : 44.100 Hz; 16 Bit; Stereo


TOC of the extracted CD

     Track |   Start  |  Length  | Start sector | End sector
    ---------------------------------------------------------
        1  |  0:00.00 |  4:21.12 |         0    |    19586   
        2  |  4:21.12 |  4:11.46 |     19587    |    38457   
        3  |  8:32.58 |  4:39.58 |     38458    |    59440   
        4  | 13:12.41 |  4:22.22 |     59441    |    79112   
        5  | 17:34.63 |  4:16.55 |     79113    |    98367   
        6  | 21:51.43 |  4:53.72 |     98368    |   120414   
        7  | 26:45.40 |  4:19.72 |    120415    |   139911   
        8  | 31:05.37 |  5:13.28 |    139912    |   163414   
        9  | 36:18.65 |  5:07.40 |    163415    |   186479   
       10  | 41:26.30 |  4:13.07 |    186480    |   205461   
       11  | 45:39.37 |  4:17.39 |    205462    |   224775   


Range status and errors

Selected range

     Filename K:\Documents and Settings\Мои документы\Nik Kershaw - to be Frank.flac.covers.by.rat.lossless-muz.ucoz.com\Nik Kershaw - to be Frank.flac.covers.by.rat.lossless-muz.ucoz.wav

     Peak level 99.6 %
     Extraction speed 2.6 X
     Range quality 100.0 %
     Copy CRC 15C9D62B
     Copy OK

No errors occurred

 
AccurateRip summary
 
Track  1  accurately ripped (confidence 3)  [39B615F5]  (AR v2)
Track  2  accurately ripped (confidence 3)  [3EE30D82]  (AR v2)
Track  3  accurately ripped (confidence 3)  [7989ED94]  (AR v2)
Track  4  accurately ripped (confidence 3)  [E1E9279F]  (AR v2)
Track  5  accurately ripped (confidence 3)  [5681726E]  (AR v2)
Track  6  accurately ripped (confidence 3)  [92AE02CB]  (AR v2)
Track  7  accurately ripped (confidence 3)  [D29F661B]  (AR v2)
Track  8  accurately ripped (confidence 3)  [1DAC1BFB]  (AR v2)
Track  9  accurately ripped (confidence 3)  [63D381A3]  (AR v2)
Track 10  accurately ripped (confidence 3)  [D0EE2BD5]  (AR v2)
Track 11  accurately ripped (confidence 3)  [391CA189]  (AR v2)
 
All tracks accurately ripped

End of status report
 
[/spoiler]

ed2k: Nik.Kershaw.-.to.be.Frank.flac.covers.by.rat.lossless-muz.ucoz.com.rar  [382.11 Mb]

Responder

Voltar para “Álbuns Lossless // Lossless Complete Albums”