SAXON - Call to Arms (2011)

Formatos Lossless // File formats (FLAC, WAV, MLP, APE, TTA, ALS, etc.)

Moderador: Moderador

Responder
rat24

SAXON - Call to Arms (2011)

Mensagem por rat24 » 20 jun 2011, 04:04

Imagem

Released 3 June 2011
Recorded Chapel Studios, Lincolnshire
Brighton Electric Studios, Brighton, United Kingdom
Genre Heavy metal
Length 45:38
Label Militia Guard Music, UDR, EMI[1]
Producer Biff Byford, Toby Jepson


[spoiler]
Call To Arms is the 19th studio album by British heavy metal band Saxon. Call to Arms was released the 3rd of June in Europe; 6th of June in UK, Finland, and Denmark; 8th of June in Greece, Poland; 10th of June in France.[2] Previously, it was due to be released on 23 May 2011 (but was later delayed.)[3][4][1][5][3] Current Deep Purple keyboardist Don Airey will make a guest appearance on the album.[5]
Two of the tracks on the album were written by the band for the movie Hybrid Theory.[5]
The album artwork is derived from Lord Kitchener Wants You, a World War I-era British Army recruitment poster
.[/spoiler]
No. Title Length
1. "Hammer of the Gods" 4:23
2. "Back in '79" 3:28
3. "Surviving Against the Odds" 5:02
4. "Mists of Avalon" 5:02
5. "Call to Arms" 4:29
6. "Chasing the Bullet" 4:14
7. "Afterburner" 3:06
8. "When Doomsday Comes" (Hybrid Theory soundtrack) 4:29
9. "No Rest for the Wicked" 3:09
10. "Ballad of the Working Man" 3:48
11. "Call to Arms" (Orchestral version) 4:28


Biff Byford - lead vocals
Paul Quinn - guitar
Doug Scarratt - guitar
Nibbs Carter - bass
Nigel Glockler - drums


[spoiler]

Código: Selecionar todos

Exact Audio Copy V1.0 beta 2 from 29. April 2011

EAC extraction logfile from 19. June 2011, 17:47

Saxon  / Call to Arms

Used drive  : HL-DT-STDVD-RAM GH22NP20   Adapter: 0  ID: 0

Read mode               : Secure
Utilize accurate stream : Yes
Defeat audio cache      : Yes
Make use of C2 pointers : No

Read offset correction                      : 102
Overread into Lead-In and Lead-Out          : No
Fill up missing offset samples with silence : Yes
Delete leading and trailing silent blocks   : No
Null samples used in CRC calculations       : Yes
Used interface                    : Installed external ASPI interface

Used output format : Internal WAV Routines
Sample format      : 44.100 Hz; 16 Bit; Stereo

TOC of the extracted CD

      Track |   Start  |  Length  | Start sector | End sector  
     ---------------------------------------------------------
         1  |  0:00.00 |  4:21.45 |         0    |    19619    
         2  |  4:21.45 |  3:28.10 |     19620    |    35229    
         3  |  7:49.55 |  3:01.74 |     35230    |    48878    
         4  | 10:51.54 |  5:02.35 |     48879    |    71563    
         5  | 15:54.14 |  4:28.65 |     71564    |    91728    
         6  | 20:23.04 |  4:14.53 |     91729    |   110831    
         7  | 24:37.57 |  3:06.36 |    110832    |   124817    
         8  | 27:44.18 |  4:28.74 |    124818    |   144991    
         9  | 32:13.17 |  3:09.64 |    144992    |   159230    
        10  | 35:23.06 |  3:48.35 |    159231    |   176365    
        11  | 39:11.41 |  4:28.44 |    176366    |   196509    

Range status and errors

Selected range

      Filename K:\Documents and Settings\Мои документы\Saxon  - Call to Arms..by.rat.eac-ape.lossless-muz.ucoz.com.covers\Saxon  - Call to Arms.wav

      Peak level 100.0 %
      Extraction speed 2.7 X
      Range quality 99.9 %
      Copy CRC 34BB2CB4
      Copy OK

No errors occurred

End of status report
[/spoiler]
ed2k: Saxon.-.Call.to.Arms..by.rat.eac-ape.lossless-muz.ucoz.com.covers.rar  [283.73 Mb]

rat24

Re: SAXON - Call to Arms (2011)

Mensagem por rat24 » 30 jun 2011, 15:38

link fixed

Responder

Voltar para “Álbuns Lossless // Lossless Complete Albums”