Francis Rossi - One step at a time (2010)

Formatos Lossless // File formats (FLAC, WAV, MLP, APE, TTA, ALS, etc.)

Moderador: Moderador

Responder
rat24

Francis Rossi - One step at a time (2010)

Mensagem por rat24 » 18 jun 2011, 19:49

Imagem

Audio CD (3 May 2010)
Number of Discs: 1
Label: earMUSIC
Genre: Rock'n'roll
Quality: eac-flac


[spoiler]
The long awaited follow up to mr rossi's king of the doghouse has been too long coming but this album is an absolute stormer, Every track is jaunty full of hooks and catchy tunes which are played and sung so well that this is without a doubt in my opinion one of the best albums of all time. From the opening track Sleeping on the job you know you are in for a treat, unlike doghouse which explored different musical styles this one is francis doing what he does best, rock boogie with melodies to die for, and this opening track sets the pace, It's a Back to back era quo sound with added female vocal harmonies which run through the song,and indeed the whole album and it gives francis's voice a very warm compliment indeed. As ive already stated every track is superb,for me one track of note is Here i go which sounds like going down town tonight part two,right down to the keyboard sound this is just sooo catchy its unreal! The single Faded memory sounds like marguerita time once again with beautiful female vocal harmonies that it doesn't get any better than this. Check out the version of the quo classic Caroline, this time the pace is slowed just a little and it gives this track a bluesy type feel but a very interesting take on the song indeed. So to sum it up if you love quo or if you want an album to cheer you up then don't think about it and go for it, you will love it. But please francis don't take another 15 years to make another solo album! Brilliant and worth so much more than 5 stars but as that's as many as i can give then that's ok.
[/spoiler]

01. Sleeping On The Job [0:03:22.46]
02. Tallulah's Waiting [0:03:39.71]
03. Crazy For You [0:03:39.07]
04. One Step At A Time [0:03:49.17]
05. Here I Go [0:03:07.63]
06. Faded Memory [0:02:57.61]
07. Strike Like Lightning [0:03:12.09]
08. Rolling Down The Road [0:03:09.11]
09. Caroline [0:04:02.30]
10. If You Believe [0:03:46.18]




[spoiler]

Code: Select all

Exact Audio Copy V1.0 beta 2 from 29. April 2011

EAC extraction logfile from 18. June 2011, 15:46

Francis Rossi / One step at a time

Used drive : HL-DT-STDVD-RAM GH22NP20 Adapter: 0 ID: 0

Read mode : Secure
Utilize accurate stream : Yes
Defeat audio cache : Yes
Make use of C2 pointers : No

Combined read/write offset correction : 0
Overread into Lead-In and Lead-Out : No
Fill up missing offset samples with silence : Yes
Delete leading and trailing silent blocks : No
Null samples used in CRC calculations : Yes
Used interface : Installed external ASPI interface

Used output format : Internal WAV Routines
Sample format : 44.100 Hz; 16 Bit; Stereo


TOC of the extracted CD

Track | Start | Length | Start sector | End sector
---------------------------------------------------------
1 | 0:00.00 | 3:22.46 | 0 | 15195
2 | 3:22.46 | 3:39.71 | 15196 | 31691
3 | 7:02.42 | 3:39.07 | 31692 | 48123
4 | 10:41.49 | 3:49.17 | 48124 | 65315
5 | 14:30.66 | 3:07.63 | 65316 | 79403
6 | 17:38.54 | 2:57.61 | 79404 | 92739
7 | 20:36.40 | 3:12.09 | 92740 | 107148
8 | 23:48.49 | 3:09.11 | 107149 | 121334
9 | 26:57.60 | 4:02.30 | 121335 | 139514
10 | 31:00.15 | 3:46.18 | 139515 | 156482


Range status and errors

Selected range

Filename K:\Francis Rossi - One step at a time.flac.covers.by.rat.lossless-muz.ucoz.com\Francis Rossi - One step at a time.wav

Peak level 100.0 %
Extraction speed 2.6 X
Range quality 100.0 %
Copy CRC 8ABE01D6
Copy OK

No errors occurred

End of status report[/code[/spoiler]



ed2k: Francis.Rossi.-.One.step.at.a.time.flac.covers.by.rat.lossless-muz.ucoz.com.rar  [352.34 Mb]

Responder

Voltar para “Álbuns Lossless // Lossless Complete Albums”