Ivy - Long Distance ( 2001)

Formatos Lossless // File formats (FLAC, WAV, MLP, APE, TTA, ALS, etc.)

Moderador: Moderador

Responder
rat24

Ivy - Long Distance ( 2001)

Mensagem por rat24 » 12 jun 2011, 20:49




Origin New York City, New York, USA
Genres Pop, Indie, Indie pop
Year 2001
Labels Unfiltered Records
Quality eac-flac


[spoiler]
Long Distance, their third LP, was released on July 10, 2001 on Nettwerk, and won the group an even wider audience both at home and abroad. The album was released on November 8, 2000 in Japan, which is seven months prior to US release, and included one bonus track "It's All in Your Mind". The US version included bonus track "Digging Your Scene", a cover of Blow Monkeys' song.
On Long Distance, lush soundscapes and dense rhythm tracks were brought to the fore, and bouncy pop songs were outnumbered by moodier, more atmospheric songs like the standout single "Edge Of The Ocean". The latter along with "Lucy Doesn't Love You" got both videos and single releases.
By this time, the band had also had found success on both the big and small screens (scoring the Farrelly Brothers’ Shallow Hal, as well as having their songs featured prominently in numerous films and television shows). Chase and Schlesinger had also begun to receive attention for their work outside the band: Chase produced the debut album by French pop group Tahiti 80, which was a hit in many countries and led to subsequent production work with several other groups; Schlesinger’s "other" band, Fountains of Wayne, released two critically acclaimed records, and he also received an Oscar nomination for his title song to Tom Hanks' film That Thing You Do!.
[/spoiler]
01. Undertow [0:04:21.61]
02. Disappointed [0:04:24.67]
03. Edge of the Ocean [0:04:25.46]
04. Blame It on Yourself [0:04:05.57]
05. While We're in Love [0:04:36.06]
06. Lucy Doesn't Love You [0:03:57.30]
07. Worry About You [0:03:58.34]
08. Let's Stay Inside [0:04:19.15]
09. Midnight Sun [0:05:28.00]
10. I Think of You [0:04:01.07]
11. Hideaway [0:04:09.19]
12. One More Last Kiss [0:05:00.49]
13. Digging Your Scene [0:03:38.64]



[spoiler]

Código: Selecionar todos

Exact Audio Copy V0.99 prebeta 4 from 23. January 2008

EAC extraction logfile from 7. June 2011, 17:15

Ivy / Long Distance

Used drive  : HL-DT-STDVD-RAM GH22NP20   Adapter: 3  ID: 0

Read mode               : Secure
Utilize accurate stream : Yes
Defeat audio cache      : Yes
Make use of C2 pointers : No

Read offset correction                      : 102
Overread into Lead-In and Lead-Out          : Yes
Fill up missing offset samples with silence : Yes
Delete leading and trailing silent blocks   : No
Null samples used in CRC calculations       : Yes
Used interface                              : Installed external ASPI interface

Used output format : Internal WAV Routines
Sample format      : 44.100 Hz; 16 Bit; Stereo


TOC of the extracted CD

     Track |   Start  |  Length  | Start sector | End sector
    ---------------------------------------------------------
        1  |  0:00.00 |  4:21.61 |         0    |    19635   
        2  |  4:21.61 |  4:24.67 |     19636    |    39502   
        3  |  8:46.53 |  4:25.46 |     39503    |    59423   
        4  | 13:12.24 |  4:05.57 |     59424    |    77855   
        5  | 17:18.06 |  4:36.06 |     77856    |    98561   
        6  | 21:54.12 |  3:57.30 |     98562    |   116366   
        7  | 25:51.42 |  3:58.34 |    116367    |   134250   
        8  | 29:50.01 |  4:19.15 |    134251    |   153690   
        9  | 34:09.16 |  5:28.00 |    153691    |   178290   
       10  | 39:37.16 |  4:01.07 |    178291    |   196372   
       11  | 43:38.23 |  4:09.19 |    196373    |   215066   
       12  | 47:47.42 |  5:00.49 |    215067    |   237615   
       13  | 52:48.16 |  3:38.64 |    237616    |   254029   


Range status and errors

Selected range

     Filename C:\Documents and Settings\Мои документы\Ivy - Long Distance.flac.covers.by.rat.lossless-muz.ucoz.com\Ivy - Long Distance.flac.covers.by.rat.lossless-muz.ucoz.wav

     Peak level 98.8 %
     Range quality 99.9 %
     Copy CRC 8DDAA7EF
     Copy OK

No errors occurred

 
AccurateRip summary
 
Track  1  not present in database
Track  2  not present in database
Track  3  not present in database
Track  4  not present in database
Track  5  not present in database
Track  6  not present in database
Track  7  not present in database
Track  8  not present in database
Track  9  not present in database
Track 10  not present in database
Track 11  not present in database
Track 12  not present in database
Track 13  not present in database
 
None of the tracks are present in the AccurateRip database

End of status report
[/spoiler]

ed2k: Ivy.-.Long.Distance.flac.covers.by.rat.lossless-muz.ucoz.com.rar  [370.58 Mb]

Responder

Voltar para “Álbuns Lossless // Lossless Complete Albums”