Journey - Eclipse (2011) [FLAC]

Formatos Lossless // File formats (FLAC, WAV, MLP, APE, TTA, ALS, etc.)

Moderador: Moderador

Responder
rat24

Journey - Eclipse (2011) [FLAC]

Mensagem por rat24 » 11 jun 2011, 14:11

Imagem

Released May 24, 2011
Recorded 2010–2011
Genre Rock
Length 66:20
Label Nomota LLC (US)
Producer Kevin Shirley, Neal Schon & Jonathan Cain
Quality eac-flac


[spoiler]
Eclipse (sometimes stylized as ECL1P53) is the fourteenth studio album by American rock band Journey, and the second with Filipino lead singer Arnel Pineda.[1] Penned by Neal Schon and Jonathan Cain with contributions from Arnel Pineda. It was released in the United States and Canada on May 24, 2011 exclusively at Walmart, internationally on May 27, 2011, the United Kingdom on May 30, 2011 and Japan on June 1, 2011.
After following 2008's highly successful Revelation album, Eclipse only managed to sell 21,400 copies in the United States in its debut week, taking #13 on Billboard 200. The album showed an 80% decrease from 2008's Revelation, which sold 105,000 units in its debut week. Eclipse marks Journey's second straight top 20 album with current lead singer Arnel Pineda.
Eclipse did have a strong sales debut outside of the United States, charting in the top 40 album charts in 5 different countries including: Japan #18, the United Kingdom #33, Germany #14, Sweden and Switzerland #24.
[/spoiler]

1. "City of Hope" 6:02
2. "Edge of the Moment" 5:27
3. "Chain of Love" 6:10
4. "Tantra" 6:27
5. "Anything Is Possible" 5:21
6. "Resonate" 5:11
7. "She's a Mystery" Schon, Cain, Arnel Pineda 6:41
8. "Human Feel" 6:44
9. "Ritual" 4:57
10. "To Whom It May Concern" A. Pineda, Schon, Cain, Erik Pineda 5:15
11. "Someone" 4:35
12. "Venus" (Instrumental)



[spoiler]

Código: Selecionar todos

Exact Audio Copy V0.99 prebeta 4 from 23. January 2008

EAC extraction logfile from 7. June 2011, 13:50

Journey / Eclipse

Used drive  : HL-DT-STDVD-RAM GH22NP20   Adapter: 3  ID: 0

Read mode               : Secure
Utilize accurate stream : Yes
Defeat audio cache      : Yes
Make use of C2 pointers : No

Read offset correction                      : 102
Overread into Lead-In and Lead-Out          : Yes
Fill up missing offset samples with silence : Yes
Delete leading and trailing silent blocks   : No
Null samples used in CRC calculations       : Yes
Used interface                              : Installed external ASPI interface

Used output format : Internal WAV Routines
Sample format      : 44.100 Hz; 16 Bit; Stereo


TOC of the extracted CD

     Track |   Start  |  Length  | Start sector | End sector
    ---------------------------------------------------------
        1  |  0:00.00 |  6:02.27 |         0    |    27176   
        2  |  6:02.27 |  5:26.69 |     27177    |    51695   
        3  | 11:29.21 |  6:10.24 |     51696    |    79469   
        4  | 17:39.45 |  6:27.27 |     79470    |   108521   
        5  | 24:06.72 |  5:21.19 |    108522    |   132615   
        6  | 29:28.16 |  5:11.09 |    132616    |   155949   
        7  | 34:39.25 |  6:40.58 |    155950    |   186007   
        8  | 41:20.08 |  6:43.60 |    186008    |   216292   
        9  | 48:03.68 |  4:56.61 |    216293    |   238553   
       10  | 53:00.54 |  5:15.00 |    238554    |   262178   
       11  | 58:15.54 |  4:34.36 |    262179    |   282764   
       12  | 62:50.15 |  3:34.25 |    282765    |   298839   


Range status and errors

Selected range

     Filename C:\Documents and Settings\Мои документы\Journey - Eclipse.flac.covers.by.rat.lossless-muz.ucoz.com\Journey - Eclipse.flac.covers.by.rat.lossless-muz.ucoz.wav

     Peak level 100.0 %
     Range quality 100.0 %
     Copy CRC B0B5F6E8
     Copy OK

No errors occurred

 
AccurateRip summary
 
Track  1  not present in database
Track  2  not present in database
Track  3  not present in database
Track  4  not present in database
Track  5  not present in database
Track  6  not present in database
Track  7  not present in database
Track  8  not present in database
Track  9  not present in database
Track 10  not present in database[/center]
Track 11  not present in database
Track 12  not present in database
 
None of the tracks are present in the AccurateRip database

End of status report
[/spoiler]

ed2k: Journey.-.Eclipse.flac.covers.by.rat.lossless-muz.ucoz.com.rar  [505.50 Mb]

Avatar do Utilizador
adelargodoi
Utilizador
Utilizador
Mensagens: 736
Registado: 21 mar 2010, 14:26

Re: Journey - Eclipse (2011) [FLAC]

Mensagem por adelargodoi » 13 jun 2011, 03:39

valeu! :banana:

Responder

Voltar para “Álbuns Lossless // Lossless Complete Albums”