Chris Rainbow- Looking Over My Shoulder & Home Of The Brave (1993)

Formatos Lossless // File formats (FLAC, WAV, MLP, APE, TTA, ALS, etc.)

Moderador: Moderador

Responder
rat24

Chris Rainbow- Looking Over My Shoulder & Home Of The Brave (1993)

Mensagem por rat24 » 05 jun 2011, 11:22

Imagem

Artist: Chris Rainbow
Album: Looking Over My Shoulder & Home Of The Brave
Released: 1993
Genre: Rock
Format: EAC/Flac


found in net
[spoiler]
He was born the son of Jimmy and Pam Harley. He adopted the stage name "Rainbow" to avoid confusion with Steve Harley, saying:
"Steve Harley was at his peak and I didn't want any confusion. The name Rainbow was found one evening as me and some friends were watching TV and the reporter’s name flashed on the screen as ‘Christopher Rainbow’, so that was that."
The Alan Parsons Project

Before joining the Project, Rainbow was involved in a band called Hope Street for a year. Following this, he released three solo albums Home of the Brave in 1975, Looking Over My Shoulder in 1977, and White Trails in 1979. Tracks from the latter two albums are collected on The Best of Chris Rainbow, 1972-1980, which has appeared in single and double CD sets and included radio spots, and rare and unreleased material. At this time Rainbow received much wider recognition for his music through the support of Kenny Everett, then on Capital Radio in London, who featured his music extensively. Some of the jingles that Rainbow made for Capital at this time were later released on an album of out-takes, demos and unreleased material.
Touring

Rainbow recorded and toured with Camel, including singing some lead vocals on studio albums The Single Factor (1982) and Stationary Traveller (1984). He worked with Camel keyboardist Ton Scherpenzeel on his 1984 album Heart of the Universe in a duo format, performing five lead vocals.
More recently, Rainbow ha\s produced several albums for the Scottish Gaelic rock group Runrig.
[/spoiler]

'Looking Over My Shoulder'
1978
1. You And I – 4.09
2. Give Me Just A Little Bit Of Your Heart – 3.31
3. Show Us The Sun – 3.13
4. Dear Brian – 6.09
5. All Night – 3.00
6. Solid State Brain – 2.35
7. Dansette – 2.13
8. Blue Bird – 4.27
9. Give Me What I Cry For – 3.22
10. Living In The World Today – 2.57
11. In And Out And Round About – 4.41

'Home Of The Brave'
1975
12. Tarzana Reseda – 2.58
13. Funky Parrot – 3.47
14. On My Way – 4.36
15. Glasgow Boy – 6.02
16. Mr. Man – 3.04
17. In Memory – 3.37
18. Is The Summer Really Over – 3.35
19. A Woman On My Mind – 3.13
20. Home Of The Brave – 7.01


[spoiler]

Código: Selecionar todos

[hide]Exact Audio Copy V0.99 prebeta 3 from 28. July 2007

Отчёт EAC об извлечении, выполненном 21. октября 2008, 1:21

Chris Rainbow / Looking Over My Shoulder & Home Of The Brave

Дисковод: HL-DT-STDVDRAM GSA-E40N Adapter: 2 ID: 0

Режим чтения : Достоверность
Использование точного потока : Да
Отключение кэша аудио : Да
Использование указателей C2 : Нет

Коррекция смещения при чтении : 667
Способность читать области Lead-in и Lead-out : Нет
Заполнение пропущенных сэмплов тишиной : Да
Удаление блоков с тишиной в начале и конце : Нет
При вычислениях CRC использовались нулевые сэмплы : Да
Интерфейс : Встроенный Win32-интерфейс для Win NT/2000

Выходной формат : Пользовательский кодировщик
Выбранный битрейт : 768 kBit/s
Качество : Высокий
Добавление ID3-тэга : Нет
Утилита сжатия : C:\Program Files\Exact Audio Copy\FLAC\FLAC.EXE
Дополнительные параметры : -6 -V -T "ARTIST=%a" -T "TITLE=%t" -T "ALBUM=%g" -T "DATE=%y" -T "TRACKNUMBER=%n" -T "GENRE=%m" -T "COMMENT=%e" %s -o %d

TOC извлечённого CD

Трек | Старт | Длительность | Начальный сектор | Конечный сектор
---------------------------------------------------------------------
1 | 0:00.00 | 4:09.00 | 0 | 18674
2 | 4:09.00 | 3:31.64 | 18675 | 34563
3 | 7:40.64 | 3:13.32 | 34564 | 49070
4 | 10:54.21 | 6:09.37 | 49071 | 76782
5 | 17:03.58 | 3:00.69 | 76783 | 90351
6 | 20:04.52 | 2:35.49 | 90352 | 102025
7 | 22:40.26 | 2:13.35 | 102026 | 112035
8 | 24:53.61 | 4:27.57 | 112036 | 132117
9 | 29:21.43 | 3:22.42 | 132118 | 147309
10 | 32:44.10 | 2:57.43 | 147310 | 160627
11 | 35:41.53 | 4:41.31 | 160628 | 181733
12 | 40:23.09 | 2:58.38 | 181734 | 195121
13 | 43:21.47 | 3:47.55 | 195122 | 212201
14 | 47:09.27 | 4:36.65 | 212202 | 232966
15 | 51:46.17 | 6:02.06 | 232967 | 260122
16 | 57:48.23 | 3:04.34 | 260123 | 273956
17 | 60:52.57 | 3:37.03 | 273957 | 290234
18 | 64:29.60 | 3:35.36 | 290235 | 306395
19 | 68:05.21 | 3:13.52 | 306396 | 320922
20 | 71:18.73 | 7:01.43 | 320923 | 352540

Характеристики диапазона извлечения и сообщения об ошибках

Выбранный диапазон

Имя файла D:\Музыка\Torrents\Chris Rainbow\Chris Rainbow - Unknown Title.wav

Пиковый уровень 100.0 %
Качество диапазона 99.9 %
CRC копии D81D3DFA
Копирование... OK

Ошибок не произошло

Конец отчёта[/hide]

[hide]AUDIOCHECKER v2.0 beta (build 457) - by Dester - opdester@freemail.hu
~~~~~~~~~~~~~~~~~~~~~~~~~~~~~~~~~~

Started at: вторник, 21. 10. 2008. - 9:31.06
20 files found

01 -===- C:\mp3dooutput\01 You And I.wav
Conclusion: this track is CDDA with probability 100%

02 -===- C:\mp3dooutput\02 Give Me Just A Little Bit Of Your Heart.wav
Conclusion: this track is CDDA with probability 100%

03 -===- C:\mp3dooutput\20 Home Of The Brave.wav
Conclusion: this track is CDDA with probability 100%

04 -===- C:\mp3dooutput\03 Show Us The Sun.wav
Conclusion: this track is CDDA with probability 100%

05 -===- C:\mp3dooutput\04 Dear Brian.wav
Conclusion: this track is CDDA with probability 100%

06 -===- C:\mp3dooutput\05 All Night.wav
Conclusion: this track is CDDA with probability 100%

07 -===- C:\mp3dooutput\06 Solid State Brain.wav
Conclusion: this track is CDDA with probability 100%

08 -===- C:\mp3dooutput\07 Dansette.wav
Conclusion: this track is CDDA with probability 100%

09 -===- C:\mp3dooutput\08 Blue Bird.wav
Conclusion: this track is CDDA with probability 100%

10 -===- C:\mp3dooutput\09 Give Me What I Cry For.wav
Conclusion: this track is CDDA with probability 99%

11 -===- C:\mp3dooutput\10 Living In The World Today.wav
Conclusion: this track is CDDA with probability 100%

12 -===- C:\mp3dooutput\11 In And Out And Round About.wav
Conclusion: this track is CDDA with probability 100%

13 -===- C:\mp3dooutput\12 Tarzana Reseda.wav
Conclusion: this track is CDDA with probability 100%

14 -===- C:\mp3dooutput\13 Funky Parrot.wav
Conclusion: this track is CDDA with probability 99%

15 -===- C:\mp3dooutput\14 On My Way.wav
Conclusion: this track is CDDA with probability 100%

16 -===- C:\mp3dooutput\15 Glasgow Boy.wav
Conclusion: this track is CDDA with probability 100%

17 -===- C:\mp3dooutput\16 MrMan.wav
Conclusion: this track is CDDA with probability 100%

18 -===- C:\mp3dooutput\17 In Memory.wav
Conclusion: this track is CDDA with probability 100%

19 -===- C:\mp3dooutput\18 Is The Summer Really Over.wav
Conclusion: this track is CDDA with probability 100%

20 -===- C:\mp3dooutput\19 A Woman On My Mind.wav
Conclusion: this track is CDDA with probability 100%

Finished at: вторник, 21. 10. 2008. - 10:04.34 (operation time: 0:33.28)[/hide]
[/spoiler]
ed2k: Chris.Rainbow.-.Looking.Over.My.Shoulder.&.Home.Of.The.Brave.flac.Israel-club.my1.ru.rar  [499.30 Mb]

Responder

Voltar para “Álbuns Lossless // Lossless Complete Albums”