SLAUGHTER - Revolution (1997) [FLAC]

Formatos Lossless // File formats (FLAC, WAV, MLP, APE, TTA, ALS, etc.)

Moderador: Moderador

Responder
rat24

SLAUGHTER - Revolution (1997) [FLAC]

Mensagem por rat24 » 29 mai 2011, 18:30

Imagem

Released May 20, 1997
Genre Hard rock
Length 52:29
Quality Eac-Flac


Revolution is the fourth studio album from hard rock band Slaughter. The album features a more psychedelic style with the band exploring beyond their typical hard rock realm.
[edit]Track listing

All songs written, arranged and produced by Mark Slaughter & Dana Strum.

"American Pie" - 3:53
"Heaven It Cries" - 6:17
"Tongue 'N Groove" - 3:04
"Can We Find A Way" - 4:27
"Stuck On You" - 4:35
"Hard To Say Good Bye" - 4:50
"Revolution" - 3:22
"Guck" (instrumental) - 1:39
"Heat Of The Moment" - 5:05
"Rocky Mountain Way" - 5:24
"You're My Everything" - 5:00
"I'm Gone" - 2:30
"Ad-Majorem-Dei-Gloriam" (instrumental) - 2:16


Line up

Mark Slaughter - Lead Vocals, Guitar, and Keyboards
Tim Kelly - Guitar
Dana Strum - Bass
Blas Elias - Drums


[spoiler]

Código: Selecionar todos

Exact Audio Copy V0.99 prebeta 4 from 23. January 2008

EAC extraction logfile from 29. May 2011, 15:52

Slaughter / Revolution

Used drive  : HL-DT-STDVD-RAM GH22NP20   Adapter: 3  ID: 0

Read mode               : Secure
Utilize accurate stream : Yes
Defeat audio cache      : Yes
Make use of C2 pointers : No

Read offset correction                      : 102
Overread into Lead-In and Lead-Out          : Yes
Fill up missing offset samples with silence : Yes
Delete leading and trailing silent blocks   : No
Null samples used in CRC calculations       : Yes
Used interface                    : Installed external ASPI interface

Used output format : Internal WAV Routines
Sample format      : 44.100 Hz; 16 Bit; Stereo

TOC of the extracted CD

      Track |   Start  |  Length  | Start sector | End sector  
     ---------------------------------------------------------
         1  |  0:00.00 |  3:53.61 |         0    |    17535    
         2  |  3:53.61 |  6:17.72 |     17536    |    45882    
         3  | 10:11.58 |  3:04.66 |     45883    |    59748    
         4  | 13:16.49 |  4:27.15 |     59749    |    79788    
         5  | 17:43.64 |  4:35.33 |     79789    |   100446    
         6  | 22:19.22 |  4:50.15 |    100447    |   122211    
         7  | 27:09.37 |  3:22.23 |    122212    |   137384    
         8  | 30:31.60 |  1:39.73 |    137385    |   144882    
         9  | 32:11.58 |  5:05.41 |    144883    |   167798    
        10  | 37:17.24 |  5:24.50 |    167799    |   192148    
        11  | 42:41.74 |  5:00.39 |    192149    |   214687    
        12  | 47:42.38 |  2:30.69 |    214688    |   226006    
        13  | 50:13.32 |  2:14.05 |    226007    |   236061    
        14  | 54:59.37 | 10:39.44 |    247462    |   295430    

Range status and errors

Selected range

      Filename C:\Documents and Settings\Мои документы\Slaughter - Revolution.flac.covers.by.rat.lossless-muz.ucoz.com\Slaughter - Revolution.flac.covers.by.rat.lossless-muz.ucoz.wav

      Peak level 99.7 %
      Range quality 100.0 %
      Copy CRC 8446E7E3
      Copy OK

No errors occurred

   
AccurateRip summary
   
Track  1  cannot be verified as accurate (confidence 3)  [0E607E37], AccurateRip returned [1F05B4F8]
Track  2  cannot be verified as accurate (confidence 3)  [1CCE8708], AccurateRip returned [03F51E51]
Track  3  cannot be verified as accurate (confidence 3)  [871CD4CB], AccurateRip returned [3300EE7B]
Track  4  cannot be verified as accurate (confidence 3)  [40CDA606], AccurateRip returned [730B4A44]
Track  5  cannot be verified as accurate (confidence 3)  [5ADACE67], AccurateRip returned [39CAD10D]
Track  6  cannot be verified as accurate (confidence 3)  [8EB67C9D], AccurateRip returned [46ECB89F]
Track  7  cannot be verified as accurate (confidence 3)  [BCF6B9BC], AccurateRip returned [0CF95D0E]
Track  8  cannot be verified as accurate (confidence 3)  [513C1711], AccurateRip returned [9C9446BB]
Track  9  cannot be verified as accurate (confidence 3)  [F8EF91C2], AccurateRip returned [32A961A2]
Track 10  cannot be verified as accurate (confidence 3)  [B75652BC], AccurateRip returned [D7275ADA]
Track 11  cannot be verified as accurate (confidence 3)  [5E4D3D23], AccurateRip returned [6086D409]
Track 12  cannot be verified as accurate (confidence 3)  [865174E3], AccurateRip returned [25A6441D]
Track 13  cannot be verified as accurate (confidence 3)  [3CB8C13C], AccurateRip returned [5DF36E72]
   
No tracks could be verified as accurate
You may have a different pressing from the one(s) in the database

End of status report
[/spoiler]
ed2k: Slaughter.-.Revolution.flac.covers.by.rat.lossless-muz.ucoz.com.rar  [412.26 Mb]

Responder

Voltar para “Álbuns Lossless // Lossless Complete Albums”