Soft Cell - Non Stop Ecstatic Dancing (rem.) (1982/98)

Formatos Lossless // File formats (FLAC, WAV, MLP, APE, TTA, ALS, etc.)

Moderador: Moderador

Responder
rat24

Soft Cell - Non Stop Ecstatic Dancing (rem.) (1982/98)

Mensagem por rat24 » 27 mai 2011, 13:13

Imagem

Audio CD (June 29, 1998)
Number of Discs: 1
Format: Eac-flac
Label: Polygram UK
Gnere: pop/dance


[spoiler]
Digitally remastered 1998 reissue of their second release, 1982's six track remix mini-LP 'Non Stop Ecstatic Dancing'. Contains new cover art, new liner notes, all of the originaltracks & six bonus tracks: extended versions of 'Tainted Love/ Where Did Our Love Go', 'Memorabilia', 'What!', 'So', 'Torch' and 'Insecure Me'. Both this reissue & the original are Mercury releases.
Soft Cell, best-known for their stark, yet captivating electronic soul cover "Tainted Love", took a trip (literally!) to New York City to remix some of their material in 1982. Instead of simply extending their songs (sadly, most modern electronic artists give up their heart and soul by letting TOTALLY UNRELATED "artists" remix their singles-check out Depeche Mode, Pet Shop Boys and Erasure's mixes: Where are the original songs? Where are the original artists? Yuck.) Soft Cell took their material into their OWN hands, and totally reinvented some of their best-known songs (except "Tainted Love"). Instead of the two-minute Soft Cell tracks, we are presented with six lengthy creations, each as exciting as the next. David Ball's keyboards pulse, pump, crunch and bleep to create a carnival-like madhouse of frenzied frolicking, which vocalist Marc Almond luxuriates in. Soft Cell create a world of neon bars and backrooms, with characters that live their lives with hedonistic abandon. Non-Stop Ecstatic Dancing throws all cares to the wind, and shamelessly spins the COOLEST dance music *ever* created in the 1980's. Listening to this album now, it is hard to imagine that it was made seventeen years ago. Dave and Marc were very ahead of the pack, and this hypnotic collection of dance mixes brings the listener into an uninhibited land of fantasy and fun. The cover of NON-STOP ECSTATIC DANCING says it all. David Ball-cool, collected, and brimming with GQ style, stands beside Marc Almond, the little diva with more *glamour* than you can shake a whip at, hint at a fantastic world of twilight and sleaze. Marc grins beside an Adult Cinema Emporium in Times Square, while Dave stands by in leather, stoic and staring. I WANT TO PEEK INTO THEIR WORLD! "Non-Stop Ecstatic Dancing" is a nice place to start! This edition features some original mixes. A must-have for anyone interested in QUALITY electronic music.
[/spoiler]
1. Memorabilia
2. Where Did Our Love Go?
3. What?
4. A Man Could Get Lost
5. Chips On My Shoulder
6. Sex Dwarf
7. Tainted Love / Where Did Our Love Go
8. Memorabilia
9. What!
10. So
11. Torch
12. Insecure Me

[spoiler]

Código: Selecionar todos

Exact Audio Copy V0.99 prebeta 4 from 23. January 2008

EAC extraction logfile from 24. May 2011, 14:51

Soft Cell / Non Stop Ecstatic Dancing

Used drive  : HL-DT-STDVD-RAM GH22NP20   Adapter: 3  ID: 0

Read mode               : Secure
Utilize accurate stream : Yes
Defeat audio cache      : Yes
Make use of C2 pointers : No

Read offset correction                      : 102
Overread into Lead-In and Lead-Out          : Yes
Fill up missing offset samples with silence : Yes
Delete leading and trailing silent blocks   : No
Null samples used in CRC calculations       : Yes
Used interface                              : Installed external ASPI interface

Used output format : Internal WAV Routines
Sample format      : 44.100 Hz; 16 Bit; Stereo


TOC of the extracted CD

     Track |   Start  |  Length  | Start sector | End sector
    ---------------------------------------------------------
        1  |  0:00.00 |  5:21.02 |         0    |    24076   
        2  |  5:21.02 |  4:22.10 |     24077    |    43736   
        3  |  9:43.12 |  4:31.18 |     43737    |    64079   
        4  | 14:14.30 |  3:56.72 |     64080    |    81851   
        5  | 18:11.27 |  4:28.58 |     81852    |   102009   
        6  | 22:40.10 |  5:14.60 |    102010    |   125619   
        7  | 27:54.70 |  8:57.62 |    125620    |   165956   
        8  | 36:52.57 |  7:45.05 |    165957    |   200836   
        9  | 44:37.62 |  6:06.73 |    200837    |   228359   
       10  | 50:44.60 |  8:46.02 |    228360    |   267811   
       11  | 59:30.62 |  8:27.18 |    267812    |   305854   
       12  | 67:58.05 |  8:16.27 |    305855    |   343081   


Range status and errors

Selected range

     Filename C:\Documents and Settings\Мои документы\Soft Cell - Non Stop Ecstatic Dancing.rem.flac.covers.by.rat.lossless-muz.ucoz.com\Soft Cell - Non Stop Ecstatic Dancing.rem.flac.covers.by.rat.lossless-muz.ucoz.wav

     Peak level 99.6 %
     Range quality 100.0 %
     Copy CRC BE64D55F
     Copy OK

No errors occurred

 
AccurateRip summary
 
Track  1  cannot be verified as accurate (confidence 18)  [22980E22], AccurateRip returned [0F76D8F6]
Track  2  cannot be verified as accurate (confidence 18)  [0BC44C7E], AccurateRip returned [440C629F]
Track  3  cannot be verified as accurate (confidence 18)  [51B84A1B], AccurateRip returned [EF9C2C26]
Track  4  cannot be verified as accurate (confidence 18)  [2EE68AD0], AccurateRip returned [2762DF91]
Track  5  cannot be verified as accurate (confidence 18)  [14AAF045], AccurateRip returned [A8B57F8B]
Track  6  cannot be verified as accurate (confidence 18)  [E011F553], AccurateRip returned [F42A4DEE]
Track  7  cannot be verified as accurate (confidence 18)  [AB5D56BE], AccurateRip returned [60CF1E25]
Track  8  cannot be verified as accurate (confidence 18)  [7A18CAA7], AccurateRip returned [FDB7BB10]
Track  9  cannot be verified as accurate (confidence 19)  [CDB36332], AccurateRip returned [20C987B9]
Track 10  cannot be verified as accurate (confidence 18)  [B346F260], AccurateRip returned [04FDAFD2]
Track 11  cannot be verified as accurate (confidence 18)  [2387FCC7], AccurateRip returned [18CDFF34]
Track 12  cannot be verified as accurate (confidence 18)  [09AB370F], AccurateRip returned [421BAD3C]
 
No tracks could be verified as accurate
You may have a different pressing from the one(s) in the database

End of status report
[/spoiler]
ed2k: Soft.Cell.-.Non.Stop.Ecstatic.Dancing.rem.flac.covers.by.rat.lossless-muz.ucoz.com.rar  [531.88 Mb]

Responder

Voltar para “Álbuns Lossless // Lossless Complete Albums”