Echo & The Bunnymen -What Are You Going To Do With Your Life (1999)

Formatos Lossless // File formats (FLAC, WAV, MLP, APE, TTA, ALS, etc.)

Moderador: Moderador

Responder
rat24

Echo & The Bunnymen -What Are You Going To Do With Your Life (1999)

Mensagem por rat24 » 23 mai 2011, 13:32

Imagem

Released 16 April 1999
Recorded 1998 at various locations
Genre Alternative rock
Length 38:24
Label London
Quality eac-flac-covers


[spoiler]
What Are You Going to Do with Your Life? is the eighth studio album by the British rock band Echo & the Bunnymen. The album saw the departure of bassist Les Pattinson from the group, partly due to disagreements with vocalist Ian McCulloch; McCulloch and the remaining band member, guitarist Will Sergeant, subsequently recorded the record with session musicians. The London Metropolitan Orchestra provided backing music and the American alternative rap band Fun Lovin' Criminals appeared as guest musicians on two tracks. The album was produced by Alan Douglas and Echo & the Bunnymen and it was recorded at various locations throughout England. Feeling sidelined during the recording of the album, Sergeant described it as "probably the worst time in my whole life".[1]
What Are You Going to Do with Your Life? was released on 16 April 1999 through London Records following the release of the first single from the album, "Rust", the previous month. One further single, "Get in the Car", followed the album's release. The album received mixed reviews from the music press, being described as both flawless and having no appeal. The album was not as popular with the public as earlier releases from Echo & the Bunnymen; the album peaked at number twenty-one on the UK Albums Chart.
[/spoiler]

01. What Are You Going to Do with Your Life [0:05:11.57]
02. Rust [0:05:09.33]
03. Get in the Car [0:04:21.70]
04. Baby Rain [0:04:17.25]
05. History Chimes [0:03:26.00]
06. Lost on You [0:04:50.42]
07. Morning Sun [0:04:12.35]
08. When It All Blows Over [0:02:57.23]
09. Fools Like Us [0:04:02.35]



[spoiler]

Código: Selecionar todos

Exact Audio Copy V0.99 prebeta 4 from 23. January 2008

EAC extraction logfile from 23. May 2011, 6:33

Echo & the Bunnymen / What Are You Going to Do with Your Life

Used drive  : HL-DT-STDVD-RAM GH22NP20   Adapter: 3  ID: 0

Read mode               : Secure
Utilize accurate stream : Yes
Defeat audio cache      : Yes
Make use of C2 pointers : No

Read offset correction                      : 102
Overread into Lead-In and Lead-Out          : Yes
Fill up missing offset samples with silence : Yes
Delete leading and trailing silent blocks   : No
Null samples used in CRC calculations       : Yes
Used interface                              : Installed external ASPI interface

Used output format : Internal WAV Routines
Sample format      : 44.100 Hz; 16 Bit; Stereo


TOC of the extracted CD

     Track |   Start  |  Length  | Start sector | End sector
    ---------------------------------------------------------
        1  |  0:00.00 |  5:11.57 |         0    |    23381   
        2  |  5:11.57 |  5:09.33 |     23382    |    46589   
        3  | 10:21.15 |  4:21.70 |     46590    |    66234   
        4  | 14:43.10 |  4:17.25 |     66235    |    85534   
        5  | 19:00.35 |  3:26.00 |     85535    |   100984   
        6  | 22:26.35 |  4:50.42 |    100985    |   122776   
        7  | 27:17.02 |  4:12.35 |    122777    |   141711   
        8  | 31:29.37 |  2:57.23 |    141712    |   155009   
        9  | 34:26.60 |  4:02.35 |    155010    |   173194   


Range status and errors

Selected range

     Filename C:\Documents and Settings\Мои документы\Echo & the Bunnymen - What Are You Going to Do... flac.covers.by.rat\Echo & the Bunnymen - What Are You Going to Do... flac.covers.by.wav

     Peak level 97.9 %
     Range quality 100.0 %
     Copy CRC 9C1D9715
     Copy OK

No errors occurred

 
AccurateRip summary
 
Track  1  cannot be verified as accurate (confidence 22)  [AF3F5843], AccurateRip returned [B94429F0]
Track  2  cannot be verified as accurate (confidence 21)  [48E05A33], AccurateRip returned [05DD3F63]
Track  3  cannot be verified as accurate (confidence 22)  [D8B658F3], AccurateRip returned [C8D528C2]
Track  4  cannot be verified as accurate (confidence 22)  [E4E979ED], AccurateRip returned [E01831CB]
Track  5  cannot be verified as accurate (confidence 22)  [4C5D0B1A], AccurateRip returned [9AA33593]
Track  6  cannot be verified as accurate (confidence 22)  [483A7403], AccurateRip returned [B75F6172]
Track  7  cannot be verified as accurate (confidence 22)  [CB6F2958], AccurateRip returned [377D4746]
Track  8  cannot be verified as accurate (confidence 22)  [8F25B14A], AccurateRip returned [A6E77B70]
Track  9  cannot be verified as accurate (confidence 22)  [A4FAEEAF], AccurateRip returned [C96B88BB]
 
No tracks could be verified as accurate
You may have a different pressing from the one(s) in the database

End of status report
[/spoiler]
ed2k: Echo.&.the.Bunnymen.-.What.Are.You.Going.to.Do....flac.covers.by.rat.rar  [272.18 Mb]

Responder

Voltar para “Álbuns Lossless // Lossless Complete Albums”