Tanzwut - Labyrinth Der Sinne (2000)

Formatos Lossless // File formats (FLAC, WAV, MLP, APE, TTA, ALS, etc.)

Moderador: Moderador

Responder
rat24

Tanzwut - Labyrinth Der Sinne (2000)

Mensagem por rat24 » 22 mai 2011, 07:28

Imagem

Artist: Tanzwut
Album: Labyrinth Der Sinne
Released: 2000
Source: EMI
Genre: Industrial/metal
Format: eac/flac


Review:

[spoiler]
Overall, this CD is quite good, but definitely not for everyone. The music is very different and employs an unusual array of instruments. The band also does a very good job of getting sometimes subtle moods across without necessarily using words to do it. However, if you don't like industrial, synthetic music you probably want to look elsewhere. Likewise if you don't like bagpipes or listen to music for its lyrics (unless you speak German, in which case the lyrics are actually quite good) you probably will not enjoy this band.
[/spoiler]
Track List:
01 Tanzwut 3:55
02 Extase 3:39
03 Lugner 4:39
04 Bitte, Bitte 3:12
05 Das Labyrinth 4:08
06 Niemals Ohne Dich 4:18
07 Die Drohne 3:36
08 Der Wachter 3:19
09 Dammerung 3:34 0.10
10 Was Soll Der Teufel Im Paradie 4:12
11 Gigolo 3:12
12 Ikarus 3:58
13 Gotterfunken 5:50


[spoiler]

Código: Selecionar todos

Exact Audio Copy V0.99 prebeta 4 from 23. January 2008

EAC extraction logfile from 20. May 2011, 19:09

Tanzwut / Labyrinth der Sinne

Used drive  : HL-DT-STDVD-RAM GH22NP20   Adapter: 3  ID: 0

Read mode               : Secure
Utilize accurate stream : Yes
Defeat audio cache      : Yes
Make use of C2 pointers : No

Read offset correction                      : 102
Overread into Lead-In and Lead-Out          : Yes
Fill up missing offset samples with silence : Yes
Delete leading and trailing silent blocks   : No
Null samples used in CRC calculations       : Yes
Used interface                    : Installed external ASPI interface

Used output format : Internal WAV Routines
Sample format      : 44.100 Hz; 16 Bit; Stereo

TOC of the extracted CD

      Track |   Start  |  Length  | Start sector | End sector  
     ---------------------------------------------------------
         1  |  0:00.00 |  3:54.72 |         0    |    17621    
         2  |  3:54.72 |  3:39.03 |     17622    |    34049    
         3  |  7:34.00 |  4:39.30 |     34050    |    55004    
         4  | 12:13.30 |  3:12.09 |     55005    |    69413    
         5  | 15:25.39 |  4:07.72 |     69414    |    88010    
         6  | 19:33.36 |  4:18.03 |     88011    |   107363    
         7  | 23:51.39 |  3:36.06 |    107364    |   123569    
         8  | 27:27.45 |  3:19.30 |    123570    |   138524    
         9  | 30:47.00 |  3:34.21 |    138525    |   154595    
        10  | 34:21.21 |  4:12.60 |    154596    |   173555    
        11  | 38:34.06 |  3:12.40 |    173556    |   187995    
        12  | 41:46.46 |  3:58.52 |    187996    |   205897    
        13  | 45:45.23 |  5:50.57 |    205898    |   232204    

Range status and errors

Selected range

      Filename C:\Documents and Settings\Мои документы\Tanzwut - Labyrinth der Sinne.flac.covers.by.rat.Israel-club.my1.ru\Tanzwut - Labyrinth der Sinne.flac.covers.by.rat.Israel-club.my1.ru.wav

      Peak level 98.8 %
      Range quality 100.0 %
      Copy CRC BAF2145D
      Copy OK

No errors occurred

   
AccurateRip summary
   
Track  1  not present in database
Track  2  not present in database
Track  3  not present in database
Track  4  not present in database
Track  5  not present in database
Track  6  not present in database
Track  7  not present in database
Track  8  not present in database
Track  9  not present in database
Track 10  not present in database
Track 11  not present in database
Track 12  not present in database
Track 13  not present in database
   
None of the tracks are present in the AccurateRip database

End of status report
[/spoiler]

ed2k: Tanzwut - Labyrinth der Sinne.flac.covers.by.rat.Israel-club.my1.ru.rar  [389.48 Mb]

rat24

Re: Tanzwut - Labyrinth Der Sinne (2000)

Mensagem por rat24 » 01 jun 2011, 10:01

reshare

Responder

Voltar para “Álbuns Lossless // Lossless Complete Albums”