The Cars - Move Like This (2011) [flac]

Formatos Lossless // File formats (FLAC, WAV, MLP, APE, TTA, ALS, etc.)

Moderador: Moderador

Responder
rat24

The Cars - Move Like This (2011) [flac]

Mensagem por rat24 » 17 mai 2011, 08:18

Imagem

Audio CD (May 10, 2011)
Original Release Date: 2011
Number of Discs: 1
Label: Hear Music
Quality: eac-flac-covers


[spoiler]
"Move Like This" is the Cars first album since 1987, and while it's been much too long since their last release, it was worth the wait! Aside from bassist Benjamin Orr, who passed away in 2000, all of the original members are back and they sound like they haven't missed a beat. The album's first track, "Blue Tip," is vintage Cars with Atari-era keyboards, a super catchy chorus laced with perky beats, and Ric Ocasek's trademark vocals. "Too Late" is a little more downbeat, a synth-driven tune with an electro pop foundation. Elliott Easton's guitar makes its presence known on "Keep On Knocking" and he turns in a very hip psychedelic solo. "Soon" is a ballad in the tradition of Drive, the hit that Orr sang back in 1984. "Sad Song" features a clever palm-muted guitar and on-the-upbeat handclaps. "Hits Me" and "Free" are a total recall of the new wave/pop sound the CARS had in the 1980's and captures their precise swagger perfectly. "Keep On Rocking" is more vintage Cars and has an incredible groove. While the band isn't breaking any new musical ground with their latest release, this is a finely produced album that fans of their earlier work will love, and is highly recommended!
[/spoiler]

1. Blue Tip
2. Too Late
3. Keep On Knocking
4. Soon
5. Sad Song
6. Free
7. Drag On Forever
8. Take Another Look
9. It’s Only
10. Hits Me


[spoiler]

Código: Selecionar todos

Exact Audio Copy V0.99 prebeta 4 from 23. January 2008

EAC extraction logfile from 17. May 2011, 8:59

The Cars / Move like this

Used drive  : HL-DT-STDVD-RAM GH22NP20   Adapter: 3  ID: 0

Read mode               : Secure
Utilize accurate stream : Yes
Defeat audio cache      : Yes
Make use of C2 pointers : No

Combined read/write offset correction       : 0
Overread into Lead-In and Lead-Out          : No
Fill up missing offset samples with silence : Yes
Delete leading and trailing silent blocks   : No
Null samples used in CRC calculations       : Yes
Used interface                    : Installed external ASPI interface

Used output format : Internal WAV Routines
Sample format      : 44.100 Hz; 16 Bit; Stereo

TOC of the extracted CD

      Track |   Start  |  Length  | Start sector | End sector  
     ---------------------------------------------------------
         1  |  0:00.00 |  3:13.28 |         0    |    14502    
         2  |  3:13.28 |  4:02.03 |     14503    |    32655    
         3  |  7:15.31 |  3:52.56 |     32656    |    50111    
         4  | 11:08.12 |  4:22.70 |     50112    |    69831    
         5  | 15:31.07 |  3:38.13 |     69832    |    86194    
         6  | 19:09.20 |  3:17.20 |     86195    |   100989    
         7  | 22:26.40 |  3:37.74 |    100990    |   117338    
         8  | 26:04.39 |  4:46.67 |    117339    |   138855    
         9  | 30:51.31 |  3:00.55 |    138856    |   152410    
        10  | 33:52.11 |  3:50.53 |    152411    |   169713    

Range status and errors

Selected range

      Filename C:\Documents and Settings\Мои документы\The Cars - Move like this.flac..by.rat.Israel-club.my1.ru\The Cars - Move like this.flac..by.rat.Israel-club.my1.ru.wav

      Peak level 100.0 %
      Range quality 100.0 %
      Copy CRC 60AD85E9
      Copy OK

No errors occurred

End of status report
[/spoiler]

ed2k: The.Cars.-.Move.like.this.flac.covers.by.rat.Israel-club.my1.ru.rar.rar  [266.85 Mb]

Responder

Voltar para “Álbuns Lossless // Lossless Complete Albums”