Nazareth - Big Dogz (2011) [APE]

Formatos Lossless // File formats (FLAC, WAV, MLP, APE, TTA, ALS, etc.)

Moderador: Moderador

Responder
rat24

Nazareth - Big Dogz (2011) [APE]

Mensagem por rat24 » 18 abr 2011, 11:13

Imagem

Genre: Hard-n-Heavy
Format: APE, lossless
Released: 2011
Size: 347
Pipper: Bigbeer


[spoiler]01. Big Dog's Gonna Howl :03:58
02. Claimed :03:55
03. No Mean Monster :05:01
04. When Jesus Comes To Save The World Again :06:24
05. Radio :04:17
06. Time And Tide :07:20
07. Lifeboat :04:58
08. The Toast :03:59
09. Watch Your Back :04:32
10. Butterfly :05:30
11. Sleeptalker :05:44


Código: Selecionar todos

Exact Audio Copy V0.99 prebeta 5 from 4. May 2009

Отчёт EAC об извлечении, выполненном 16. апреля 2011, 11:22

Nazareth / Big Dogz

Дисковод: HL-DT-STDVDRAM GH20NS10   Adapter: 1  ID: 0

Режим чтения                 : Достоверность
Использование точного потока : Да
Отключение кэша аудио        : Да
Использование указателей C2  : Нет

Коррекция смещения при чтении                     : 667
Способность читать области Lead-in и Lead-out     : Нет
Заполнение пропущенных сэмплов тишиной            : Да
Удаление блоков с тишиной в начале и конце        : Нет
При вычислениях CRC использовались нулевые сэмплы : Нет
Интерфейс                    : Встроенный Win32-интерфейс для Win NT/2000

Выходной формат : Внутренние WAV-операции
Формат сэмплов  : 44.100 Гц; 16 бит; стерео

TOC извлечённого CD

      Трек |   Старт  | Длительность | Начальный сектор | Конечный сектор  
     ---------------------------------------------------------------------
        1  |  0:00.00 |    3:58.66   |           0      |      17915       
        2  |  3:58.66 |    3:55.24   |       17916      |      35564       
        3  |  7:54.15 |    5:01.14   |       35565      |      58153       
        4  | 12:55.29 |    6:24.63   |       58154      |      87016       
        5  | 19:20.17 |    4:17.36   |       87017      |     106327       
        6  | 23:37.53 |    7:20.60   |      106328      |     139387       
        7  | 30:58.38 |    4:58.48   |      139388      |     161785       
        8  | 35:57.11 |    3:59.22   |      161786      |     179732       
        9  | 39:56.33 |    4:32.24   |      179733      |     200156       
       10  | 44:28.57 |    5:30.03   |      200157      |     224909       
       11  | 49:58.60 |    5:44.74   |      224910      |     250783       

Характеристики диапазона извлечения и сообщения об ошибках

Выбранный диапазон

      Имя файла D:\Музыка\Nazareth - Big Dogz (2011) APE\Nazareth - Big Dogz.wav

      Пиковый уровень 97.1 %
      Качество диапазона 100.0 %
      CRC копии B6D685E2
      Копирование... OK

Ошибок не произошло

   
AccurateRip: сводка
   
Трек  1  нет в базе данных
Трек  2  нет в базе данных
Трек  3  нет в базе данных
Трек  4  нет в базе данных
Трек  5  нет в базе данных
Трек  6  нет в базе данных
Трек  7  нет в базе данных
Трек  8  нет в базе данных
Трек  9  нет в базе данных
Трек 10  нет в базе данных
Трек 11  нет в базе данных
   
Ни одного трека нет в базе AccurateRip

Конец отчёта
[/spoiler]
ed2k: Nazareth.2011.Big.Dogz.eac.covers.lossless-muz.ucoz.com.rar  [375.85 Mb]

Responder

Voltar para “Álbuns Lossless // Lossless Complete Albums”