Kim Wilde - Love Is (1992) [FLAC]

Formatos Lossless // File formats (FLAC, WAV, MLP, APE, TTA, ALS, etc.)

Moderador: Moderador

Responder
rat24

Kim Wilde - Love Is (1992) [FLAC]

Mensagem por rat24 » 04 abr 2011, 12:47

Imagem

Released 18 May 1992
Genre Pop
Label MCA Records
Producer Rick Nowels, Ricky Wilde
Quality eac-flac


[spoiler]
Love Is is the eighth studio album by Kim Wilde, released in spring 1992.
Kim Wilde found herself working with Rick Nowels on this album, the same songwriter who had written for Belinda Carlisle and later for Madonna amongst others. Three of the eleven tracks were produced by him while the remaining eight were produced by Ricky Wilde.
The majority of the tracks on this album were co-written by Kim. She'd taken a long hard look at herself, resulting in the song "Who Do You Think You Are?", in which she reflects on how she had behaved through the years in her career. There were more love songs on this album; titles such as "Touched By Your Magic" and "Heart Over Mind" are an indication of the themes of the lyrics.
Nowels provided "Love Is Holy", a song that immediately struck a chord with Kim when she heard it in his studio in America. It became the first single release, giving Kim her first UK Top 20 hit in nearly four years. Although the following two singles fell short of equalling its success, the project as a whole was well-received by critics, who noted the Carlisle connection in some tracks. The rest of the album, however, was more consistent with the Wilde sound: guitar riffs over synths. Overall, the sound is more introspective and organic than the commercial pop of Love Moves, and especially haunting was the closing track, "Too Late", in which the loss of love is described in mournful tones.
[/spoiler]

Track listing

"Love Is Holy"
"Who Do You Think You Are?"
"I Believe in You"
"Touched by Your Magic"
"I Won't Change the Way That I Feel"
"Million Miles Away"
"The Light of the Moon (Belongs to Me)"
"Heart Over Mind"
"A Miracle's Coming"
"Try Again"
"Too Late"


[spoiler]Exact Audio Copy V0.99 prebeta 4 from 23. January 2008

Código: Selecionar todos

EAC extraction logfile from 28. March 2011, 18:16

Kim Wilde / love is

Used drive  : TSSTcorpCD/DVDW SH-W162L   Adapter: 3  ID: 1

Read mode               : Secure
Utilize accurate stream : Yes
Defeat audio cache      : Yes
Make use of C2 pointers : No

Read offset correction                      : 6
Overread into Lead-In and Lead-Out          : No
Fill up missing offset samples with silence : Yes
Delete leading and trailing silent blocks   : No
Null samples used in CRC calculations       : Yes
Used interface                    : Installed external ASPI interface

Used output format : Internal WAV Routines
Sample format      : 44.100 Hz; 16 Bit; Stereo

TOC of the extracted CD

      Track |   Start  |  Length  | Start sector | End sector  
     ---------------------------------------------------------
         1  |  0:00.00 |  4:03.25 |         0    |    18249    
         2  |  4:03.25 |  3:48.22 |     18250    |    35371    
         3  |  7:51.47 |  4:07.43 |     35372    |    53939    
         4  | 11:59.15 |  4:35.67 |     53940    |    74631    
         5  | 16:35.07 |  4:07.50 |     74632    |    93206    
         6  | 20:42.57 |  4:07.55 |     93207    |   111786    
         7  | 24:50.37 |  4:15.28 |    111787    |   130939    
         8  | 29:05.65 |  4:06.42 |    130940    |   149431    
         9  | 33:12.32 |  3:59.48 |    149432    |   167404    
        10  | 37:12.05 |  4:22.62 |    167405    |   187116    
        11  | 41:34.67 |  3:59.30 |    187117    |   205071    

Range status and errors

Selected range

      Filename C:\Documents and Settings\Мои документы\Kim Wilde - love is..eac.covers.by.rat.lossless-muz.ucoz.com\Kim Wilde - love is. Live from Dublin.eac.covers.by.rat.lossless-muz.ucoz.wav

      Peak level 100.0 %
      Range quality 100.0 %
      Copy CRC EC6F8483
      Copy OK

No errors occurred

End of status report
[/spoiler]
ed2k: Kim.Wilde.-.love.is.eac.covers.by.rat.lossless-muz.ucoz.com.rar  [306.84 Mb]

Responder

Voltar para “Álbuns Lossless // Lossless Complete Albums”