Chris de Burgh - High On Emotion - Live from Dublin

Formatos Lossless // File formats (FLAC, WAV, MLP, APE, TTA, ALS, etc.)

Moderador: Moderador

Responder
rat24

Chris de Burgh - High On Emotion - Live from Dublin

Mensagem por rat24 » 11 mar 2011, 14:44

Imagem

Audio CD (September 17, 1990)
Number of Discs: 1
Format: eac-flac
Label: Universal I.S.
Genre: pop


[spoiler]
Despite 17 albums, the latest being 2004's The Road To Freedom, and international sales of 45 million copies, singer-songwriter Chris de Burgh's work has for years only been available in the U.S. via imports. A '70s folk-based troubadour who reached pop stardom in the '80s but refused to sacrifice his family life to crack the American market, today de Burgh--still married to the inspiration for his biggest hit, "The Lady In Red," and with one of his three children, Rosanna Davison, crowned Miss World 2003--is once again a much-admired cult figure with a loyal fan base around the world.
[/spoiler]

Track Listings
1. Last Night
2. Sailing Away
3. The Revolution
4. I'm Not Scared Anymore
5. Spanish Train
6. Borderline
7. The Risen Lord
8. The Last Time I Cried
9. The Lady In Red
10. A Spaceman Came Travelling
11. Patricia The Stripper
12. Missing You
13. Say Goodbye To It All
14. Don't Pay The Ferryman
15. High On Emotion


[spoiler]

Código: Selecionar todos

Exact Audio Copy V0.99 prebeta 4 from 23. January 2008

EAC extraction logfile from 11. March 2011, 9:16

Chris de Burgh / High On Emotion - Live from Dublin

Used drive  : TSSTcorpCD/DVDW SH-W162L   Adapter: 3  ID: 1

Read mode               : Secure
Utilize accurate stream : Yes
Defeat audio cache      : Yes
Make use of C2 pointers : No

Read offset correction                      : 6
Overread into Lead-In and Lead-Out          : No
Fill up missing offset samples with silence : Yes
Delete leading and trailing silent blocks   : No
Null samples used in CRC calculations       : Yes
Used interface                              : Installed external ASPI interface

Used output format : Internal WAV Routines
Sample format      : 44.100 Hz; 16 Bit; Stereo


TOC of the extracted CD

     Track |   Start  |  Length  | Start sector | End sector
    ---------------------------------------------------------
        1  |  0:00.00 |  7:13.12 |         0    |    32486   
        2  |  7:13.12 |  5:14.38 |     32487    |    56074   
        3  | 12:27.50 |  4:03.00 |     56075    |    74299   
        4  | 16:30.50 |  4:40.37 |     74300    |    95336   
        5  | 21:11.12 |  6:00.50 |     95337    |   122386   
        6  | 27:11.62 |  4:51.13 |    122387    |   144224   
        7  | 32:03.00 |  3:36.37 |    144225    |   160461   
        8  | 35:39.37 |  6:16.00 |    160462    |   188661   
        9  | 41:55.37 |  4:07.63 |    188662    |   207249   
       10  | 46:03.25 |  3:43.25 |    207250    |   223999   
       11  | 49:46.50 |  4:21.37 |    224000    |   243611   
       12  | 54:08.12 |  4:25.63 |    243612    |   263549   
       13  | 58:34.00 |  5:58.62 |    263550    |   290461   
       14  | 64:32.62 |  4:11.63 |    290462    |   309349   
       15  | 68:44.50 |  5:11.25 |    309350    |   332699   


Range status and errors

Selected range

     Filename C:\Documents and Settings\Мои документы\Chris de Burgh - High On Emotion - Live from Dublin.eac.covers.by.rat.lossless-muz.ucoz.com\Chris de Burgh - High On Emotion - Live from Dublin.eac.covers.by.rat.lossless-muz.ucoz.wav

     Peak level 100.0 %
     Range quality 100.0 %
     Copy CRC 3BA87AF6
     Copy OK

No errors occurred

End of status report
[/spoiler]
ed2k: Chris.de.Burgh.-.High.On.Emotion.-.Live.from.Dublin.eac.covers.by.rat.lossless-muz.ucoz.com.rar  [462.38 Mb]

Responder

Voltar para “Álbuns Lossless // Lossless Complete Albums”