Bonafide - Something's Dripping (2009)[Flac]

Formatos Lossless // File formats (FLAC, WAV, MLP, APE, TTA, ALS, etc.)

Moderador: Moderador

Responder
rat24

Bonafide - Something's Dripping (2009)[Flac]

Mensagem por rat24 » 11 mar 2011, 06:05

Imagem

Artist: Bonafide
Album: Something's Dripping
Released: 2009
Genre: hard'n'heavy
Format: Eac-flac


[spoiler]
We have seen a crazy amount of good bands come of Sweden in the last couple of years. In 2007, Swedish rockers Bonafide released their self titled debut. I enjoyed their first disc quite a bit, but Bonafide has far exceeded that album with their sophomore effort “Something’s Dripping”. What does Bonafide sound like? How about Paul Shortino on steroids, fronting a band the caliber of Rhino Bucket. This is bluesy pub rock at its finest.

If the opening track “Dirt Bound” doesn’t knock you down on the first play, the following cut, “Hard Livin’ Man” will certainly deliver that one-two punch.

Mia Coldheart from Crucified Barbara shares vocal duties with Pontus Snibb on “Straight Shooters” I can only describe this as one bad-assed tune.

There are parts of the song “Elvis Chapel Blues” where Pontus Snibb nearly sounds like Paul Stanley from KISS. I think the song also has a Krokus like vibe going for it. Cool tune.

“Dog” is a high octane head banger that has to be fun to see live. (Neck brace is optional).

“Butter You Up” starts off a triumvirate of kickass rockers to close out Something’s Dripping.

I am a sucker for the bluesy riffs of “Swan Song”. If you don’t find your self rocking out to this tune, then your headphones must be broken.

The closer “Sicker Than I Think” sees Bonafide channeling their inner AC/DC, and it flat out rocks.

Go ahead and “Fill Your Head With Rock” by checking out Bonafide’s myspace here. Something’s Dripping may not be completely original, but it certainly entertaining! This is the type of music that will make you want to crack open a cold one, and enjoy your weekend! Recommended!
[/spoiler]

01. Dirt Bound
02. Hard Livin´man
03. No Doubt About It
04. Straight Shooters
05. Elvis Chapel Blues
06. Fill Your Head With Rock
07. Dog
08. Shot of You
09. Butter You Up
10. Swan song
11. Sicker Than I Think


[spoiler]

Código: Selecionar todos

Exact Audio Copy V0.99 prebeta 4 from 23. January 2008

EAC extraction logfile from 10. March 2011, 20:29

- / -

Used drive  : TSSTcorpCD/DVDW SH-W162L   Adapter: 3  ID: 1

Read mode               : Secure
Utilize accurate stream : Yes
Defeat audio cache      : Yes
Make use of C2 pointers : No

Read offset correction                      : 6
Overread into Lead-In and Lead-Out          : No
Fill up missing offset samples with silence : Yes
Delete leading and trailing silent blocks   : No
Null samples used in CRC calculations       : Yes
Used interface                              : Installed external ASPI interface

Used output format : Internal WAV Routines
Sample format      : 44.100 Hz; 16 Bit; Stereo


TOC of the extracted CD

     Track |   Start  |  Length  | Start sector | End sector
    ---------------------------------------------------------
        1  |  0:00.00 |  3:44.20 |         0    |    16819   
        2  |  3:44.20 |  3:18.46 |     16820    |    31715   
        3  |  7:02.66 |  4:00.23 |     31716    |    49738   
        4  | 11:03.14 |  3:34.38 |     49739    |    65826   
        5  | 14:37.52 |  4:36.07 |     65827    |    86533   
        6  | 19:13.59 |  5:12.64 |     86534    |   109997   
        7  | 24:26.48 |  3:15.59 |    109998    |   124681   
        8  | 27:42.32 |  3:22.51 |    124682    |   139882   
        9  | 31:05.08 |  3:34.68 |    139883    |   156000   
       10  | 34:40.01 |  4:11.11 |    156001    |   174836   
       11  | 38:51.12 |  3:45.19 |    174837    |   191730   


Range status and errors

Selected range

     Filename C:\Documents and Settings\Мои документы\Bonafide - Something's Dripping-.eac.covers.by.rat.lossless-muz.ucoz.com\Bonafide - Something's Dripping-.eac.covers.by.rat.lossless-muz.ucoz.wav

     Peak level 100.0 %
     Range quality 100.0 %
     Copy CRC 075916D7
     Copy OK

No errors occurred

End of status report
[/spoiler]
ed2k: Bonafide.-.Something.Dripping-.eac.covers.by.rat.lossless-muz.ucoz.com.rar  [370.84 Mb]

Responder

Voltar para “Álbuns Lossless // Lossless Complete Albums”