Bonafide - Bonafide (2007) [APE]

Formatos Lossless // File formats (FLAC, WAV, MLP, APE, TTA, ALS, etc.)

Moderador: Moderador

Responder
rat24

Bonafide - Bonafide (2007) [APE]

Mensagem por rat24 » 15 jan 2011, 07:45

Imagem

Artist: Bonafide
Title: Bonafide
Label: Black Lodge
Distributor: SPD
Format: Eac-ape
Genre: Hard & Heavy
Catalog number: SPD-BLOD063-CD


[spoiler]
There is no doubt about it. Sweden’s Bonafide are doing an excellent job of keeping a long established tradition alive. Theirs is a no fuss, straight on, fun loving brand of blues based rock music that acts as a great reminder of just how great uncomplicated quality rock can be.
In front man Pontus Snibb they have someone who brings years of experience playing with the likes of Jason & The Scorchers, Eric Bibb, Stacey Collins, Warner Hodges, and Charlie Musselwhite to name but a few. His solo career has brought us his style of countrified rock and blues and placed him firmly at the top of the Swedish blues scene. It is that blues tradition and his distinctive voice that adds that extra dimension to Bonafide and separates them from the pack.
Making up Bonafide are bass player Micke Nilsson, drummer Sticky Bomb, and guitarist Mikael Fassberg. Fassberg has worked alongside former Iron Maiden singer Paul Di’Anno and Nazareth’s Manny Charlton. Together Bonafide combine to produce a tight, driving force that allows them to really let loose and play some good old blues-rock. This is a band that lists, among others, The Faces, Humble Pie, Bad Company, Free, and AC/DC as their influences, and they have definitely taken those names to their heart as they deal out a driving blues tinged, vibrating, foot stomping album. This, the self titled Bonafide, is now bringing in well earned rave reviews and justifiably so.
Opening with “Down”, a glorious scene setter if ever there was one, they simply don’t take their foot off creative throttle throughout. “Loud Bang” has them sounding uncannily like early Bon Scott AC/DC in the “Sin City” era. Of course, this is said as a mighty compliment. Snibb’s blues soaked voice is in simply great form and “Going For The Kill” and “Hard Case To Break” underline his credentials in huge black ink. “50 Cent Millionaire” basks in the blues and “Firewall” has more than a brilliant touch of Free or Bad Company about it. This is a band that doesn’t just pay homage to the great and the good but in another age would have been right up there with them.
[/spoiler]

01. Down [0:03:36.15]
02. Loud Band [0:04:51.27]
03. Going In For the Kill [0:03:38.54]
04. Hard Case to Break [0:04:59.70]
05. 50 Cent Millionaire [0:05:10.26]
06. Firewall [0:04:18.17]
07. Can't Get Through [0:04:04.35]
08. Peg Legged Pete [0:03:49.43]
09. Sick [0:04:53.65]
10. Gambling Blues [0:04:18.51]
11. Night Time [0:04:53.23]
12. Miss Misery [0:04:22.61]
13. Hard Case to Break (Live At Sweden Rock Festival 2008) [0:05:21.11]
14. Night Time (Live At Sweden Rock Festival 2008) [0:08:55.46]


[spoiler]

Código: Selecionar todos

Exact Audio Copy V0.99 prebeta 4 from 23. January 2008

EAC extraction logfile from 13. January 2011, 22:25

Bonafide / Bonafide

Used drive  : TSSTcorpCD/DVDW SH-W162L   Adapter: 3  ID: 1

Read mode               : Secure
Utilize accurate stream : Yes
Defeat audio cache      : Yes
Make use of C2 pointers : No

Read offset correction                      : 6
Overread into Lead-In and Lead-Out          : No
Fill up missing offset samples with silence : Yes
Delete leading and trailing silent blocks   : No
Null samples used in CRC calculations       : Yes
Used interface                              : Installed external ASPI interface

Used output format : Internal WAV Routines
Sample format      : 44.100 Hz; 16 Bit; Stereo


TOC of the extracted CD

     Track |   Start  |  Length  | Start sector | End sector
    ---------------------------------------------------------
        1  |  0:00.00 |  3:36.15 |         0    |    16214   
        2  |  3:36.15 |  4:51.27 |     16215    |    38066   
        3  |  8:27.42 |  3:38.54 |     38067    |    54470   
        4  | 12:06.21 |  4:59.70 |     54471    |    76965   
        5  | 17:06.16 |  5:10.26 |     76966    |   100241   
        6  | 22:16.42 |  4:18.17 |    100242    |   119608   
        7  | 26:34.59 |  4:04.35 |    119609    |   137943   
        8  | 30:39.19 |  3:49.43 |    137944    |   155161   
        9  | 34:28.62 |  4:53.65 |    155162    |   177201   
       10  | 39:22.52 |  4:18.51 |    177202    |   196602   
       11  | 43:41.28 |  4:53.23 |    196603    |   218600   
       12  | 48:34.51 |  4:22.61 |    218601    |   238311   
       13  | 52:57.37 |  5:21.11 |    238312    |   262397   
       14  | 58:18.48 |  8:55.46 |    262398    |   302568   


Range status and errors

Selected range

     Filename C:\Documents and Settings\Мои документы\Bonafide - Bonafide.eac.covers.by.rat.lossless-muz.ucoz.com\Bonafide - Bonafide.eac.covers.by.rat.lossless-muz.ucoz.wav

     Peak level 99.5 %
     Range quality 99.9 %
     Copy CRC 27A86B03
     Copy OK

No errors occurred

End of status report
[/spoiler]

ed2k: Bonafide.-.Bonafide.eac.ape.by.rat.lossless-muz.ucoz.com.rar  [450.19 Mb]

Responder

Voltar para “Álbuns Lossless // Lossless Complete Albums”