Alphaville - Catching Rays on Giant (2010)[APE]

Formatos Lossless // File formats (FLAC, WAV, MLP, APE, TTA, ALS, etc.)

Moderador: Moderador

Responder
rat24

Alphaville - Catching Rays on Giant (2010)[APE]

Mensagem por rat24 » 14 jan 2011, 18:32

Imagem


Artist: Alphaville
Title Of Album: Catching Rays on Giant
Year Of Release: 2010
Country: Germany
Label: Marian Gold/Universal Music GmbH 2750762 0
Genre: Electronic, Synth-Pop, New Wave
Quality: Lossless, Ape-eac



[spoiler]
Anyone please, whistles still perform today the synth-pop heroes Alphaville? Yes, Marian Gold (the only remaining original member of the cast) is back and shows the pop-competition, where the rubber meets the common-Eighties, the same with the opener ‘Song For No One’ in great spirits. It has not changed much since the hits ‘Forever Young’ and ‘Big In Japan’.
[/spoiler]

Tracklist:

[03:31] 01. Song For No One
[03:47] 02. I Die For You Today
[03:58] 03. End Of The World
[04:40] 04. The Things I Didn't Do
[04:44] 05. Heaven On Earth (The Things We've Got To Do)
[04:23] 06. The Deep
[03:46] 07. Call Me
[04:15] 08. Gravitation Breakdown
[04:53] 09. Carry Your Flag
[04:30] 10. Call Me Down
[03:39] 11. Phantoms
[05:04] 12. Miracle Healing

Line-up / Musicians:

Marian Gold - vocals
Martin Lister - machines
David P. Goodes - guitars
Jakob Kiersch - drums

[spoiler]

Código: Selecionar todos

Exact Audio Copy V0.99 prebeta 4 from 23. January 2008

EAC extraction logfile from 14. January 2011, 10:14

Alphaville / Catching Rays On Giant

Used drive  : TSSTcorpCD/DVDW SH-W162L   Adapter: 3  ID: 1

Read mode               : Secure
Utilize accurate stream : Yes
Defeat audio cache      : Yes
Make use of C2 pointers : No

Read offset correction                      : 6
Overread into Lead-In and Lead-Out          : No
Fill up missing offset samples with silence : Yes
Delete leading and trailing silent blocks   : No
Null samples used in CRC calculations       : Yes
Used interface                              : Installed external ASPI interface

Used output format : Internal WAV Routines
Sample format      : 44.100 Hz; 16 Bit; Stereo


TOC of the extracted CD

     Track |   Start  |  Length  | Start sector | End sector
    ---------------------------------------------------------
        1  |  0:00.00 |  3:31.45 |         0    |    15869   
        2  |  3:31.45 |  3:47.12 |     15870    |    32906   
        3  |  7:18.57 |  3:58.48 |     32907    |    50804   
        4  | 11:17.30 |  4:40.32 |     50805    |    71836   
        5  | 15:57.62 |  4:44.51 |     71837    |    93187   
        6  | 20:42.38 |  4:23.15 |     93188    |   112927   
        7  | 25:05.53 |  3:46.55 |    112928    |   129932   
        8  | 28:52.33 |  4:15.08 |    129933    |   149065   
        9  | 33:07.41 |  4:53.29 |    149066    |   171069   
       10  | 38:00.70 |  4:30.66 |    171070    |   191385   
       11  | 42:31.61 |  3:39.02 |    191386    |   207812   
       12  | 46:10.63 |  5:04.17 |    207813    |   230629   


Range status and errors

Selected range

     Filename C:\Documents and Settings\Мои документы\Alphaville - Catching Rays On Giant.eac.covers.by.rat.lossless-muz.ucoz\Alphaville - Catching Rays On Giant.eac.covers.by.rat.lossless-muz.ucoz.wav

     Peak level 99.9 %
     Range quality 100.0 %
     Copy CRC 3D1ADB89
     Copy OK

No errors occurred

End of status report
[/spoiler]
ed2k: Alphaville.-.Catching.Rays.On.Giant.eac.covers.by.rat.lossless-muz.ucoz.rar  [850.76 Mb]

Responder

Voltar para “Álbuns Lossless // Lossless Complete Albums”