Simple Minds - Real Life (1991) [APE]

Formatos Lossless // File formats (FLAC, WAV, MLP, APE, TTA, ALS, etc.)

Moderador: Moderador

Responder
rat24

Simple Minds - Real Life (1991) [APE]

Mensagem por rat24 » 13 jan 2011, 18:27

Imagem

Original Release Date: 1991
Number of Discs: 1
Format: Eac-Flac
Label: Virgin Records Us
Genre: New wave, New romantic


[spoiler]
This is a truly great album. May I stress the word album? Yes, I think I will. What has unfortunately been lost in today's world of digital downloading is the TRUE ALBUM EXPERIENCE. An album experience where every song has its place and fits a certain flow. This is one of those albums. Track one feels like a track one. Track two feels like a track two. The last track feels like a great closer, etc. You get my drift. The album can be listend to straight through, taking the listener on a beautiful ride through all different themes, moods, and paces. I had already heard "See The Lights," "Let There Be Love," and "Stand By Love" on their 82>92 best of compilation. Those three tracks are all stellar, but I'd have to say my favorite tracks are the title track "Real Life," "African Skies," "Let The Children Speak," and "Banging On The Door." "Real Life" takes the title. The song is amazing. I seriously got my $$$'s worth with this track alone. I must have had it on repeat in my car for 3 straight days. Simply amazing. The video is great too, which you can see on their Visual History DVD. The emotion displayed in the singing of "African Skies" is unparalleled by most artists. I can continue but I think my point has been made. Buy this album for a truly rewarding listening experience. Anyone who writes this album off as over-produced or a sellout or adult contemporary needs to have their head examined. Not the case at all. Just true art with a fantastic effect.
[/spoiler]


01 Real Life [0:04:53.63]
02. See The Lights [0:04:22.17]
03 Let There Be Love [0:04:57.38]
04. Woman [0:04:40.20]
05 Stand By Love [0:04:04.17]
06 Let The Children Speak [0:04:16.50]
07 African Skies [0:04:52.20]
08. 08 / Ghostrider [0:03:22.38]
09 Banging On The Door [0:01:16.40]
10 Banging On The Door (2) [0:04:22.35]
11 Travelling Man [0:03:34.50]
12 Rivers Of Ice [0:03:30.27]
13 When Two Worlds Collide [0:04:01.68]


[spoiler]

Código: Selecionar todos

Exact Audio Copy V0.99 prebeta 4 from 23. January 2008

EAC extraction logfile from 12. January 2011, 22:46

simple minds / real life

Used drive  : TSSTcorpCD/DVDW SH-W162L   Adapter: 3  ID: 1

Read mode               : Secure
Utilize accurate stream : Yes
Defeat audio cache      : Yes
Make use of C2 pointers : No

Read offset correction                      : 6
Overread into Lead-In and Lead-Out          : No
Fill up missing offset samples with silence : Yes
Delete leading and trailing silent blocks   : No
Null samples used in CRC calculations       : Yes
Used interface                              : Installed external ASPI interface

Used output format : Internal WAV Routines
Sample format      : 44.100 Hz; 16 Bit; Stereo


TOC of the extracted CD

     Track |   Start  |  Length  | Start sector | End sector
    ---------------------------------------------------------
        1  |  0:00.00 |  4:53.63 |         0    |    22037   
        2  |  4:53.63 |  4:22.17 |     22038    |    41704   
        3  |  9:16.05 |  4:57.38 |     41705    |    64017   
        4  | 14:13.43 |  4:40.20 |     64018    |    85037   
        5  | 18:53.63 |  4:04.17 |     85038    |   103354   
        6  | 22:58.05 |  4:16.50 |    103355    |   122604   
        7  | 27:14.55 |  4:52.20 |    122605    |   144524   
        8  | 32:07.00 |  3:22.38 |    144525    |   159712   
        9  | 35:29.38 |  1:16.40 |    159713    |   165452   
       10  | 36:46.03 |  4:22.35 |    165453    |   185137   
       11  | 41:08.38 |  3:34.50 |    185138    |   201237   
       12  | 44:43.13 |  3:30.27 |    201238    |   217014   
       13  | 48:13.40 |  4:01.68 |    217015    |   235157   


Range status and errors

Selected range

     Filename C:\Documents and Settings\Мои документы\simple minds - real life.eac.covers.by.rat.lossless-muz.ucoz.com\simple minds - real life.eac.covers.by.rat.lossless-muz.ucoz.wav

     Peak level 99.2 %
     Range quality 100.0 %
     Copy CRC CBA2E0DC
     Copy OK

No errors occurred

End of status report
[/spoiler]

ed2k: simple.minds.-.real.life.eac.covers.by.rat.lossless-muz.ucoz.com.rar  [343.85 Mb]

Avatar do Utilizador
Barefaced
Administrador
Administrador
Mensagens: 37956
Registado: 06 jul 2007, 17:43
Localização: @ Home
Contacto:

Re: Simple Minds - Real Life (1991) [APE]

Mensagem por Barefaced » 13 jan 2011, 19:44

:BananaonPiano:

:thanxu:
Imagem
Imagem

Avatar do Utilizador
tueunos
Utilizador
Utilizador
Mensagens: 7585
Registado: 17 mai 2008, 21:31
Localização: Algures Planeta Terra

Re: Simple Minds - Real Life (1991) [APE]

Mensagem por tueunos » 13 jan 2011, 19:53

:thanxu6:
Imagem

"A vida é uma pedra de amolar: desgasta-nos ou afia-nos, conforme o metal de que somos feitos."

"Eu sou responsável pelo que digo, não pelo que as pessoas entendem."

Responder

Voltar para “Álbuns Lossless // Lossless Complete Albums”