Gazebo - ...The Syndrone (2008) [ape]

Formatos Lossless // File formats (FLAC, WAV, MLP, APE, TTA, ALS, etc.)

Moderador: Moderador

Responder
rat24

Gazebo - ...The Syndrone (2008) [ape]

Mensagem por rat24 » 12 jan 2011, 18:50

Imagem


Format: eac-ape
Released:2008
Genre:Electronic
Style:Synth-pop


[spoiler]
Mazzolini was born in Beirut, Lebanon, the son of an Italian diplomat and an American singer. Reportedly, he learned to play the guitar aged 10 to impress a German girl in his class.
As a rather cosmopolitan teenager Mazzolini began a career in a variety of jazz, rock and punk bands before meeting Rome based producer Paul Micioni. The first release, Masterpiece, was a minor hit in 1982.
His footnote in charts history is his 1983 release "I like Chopin", popular opinion notwithstanding, the piano motif herein is not a Chopin composition. The release sold 8 millions copies worldwide and reached #1 of Italian charts along with 15 other countries.[1]
The follow-up song "Lunatic" and the eponymous album also entered the Top 20 across Europe.
Since then Mazzolini has released more albums, not counting the occasional hit compilation with all his best track called Portrait & Viewpoint. In autumn 2006 he released a new single called "Tears for Galileo", which achieved constant radio airplay on Italian RAI Radio2 and peaked at #1 in the Euro dance chart.
Gazebo found his own record label, Softworks, in 2006.
Recently Gazebo released a new single, "Virtual Love" after "Ladies!", from his upcoming new album The Syndrone.
[/spoiler]

Tracklist
1 Tears For Galileo 4:21
2 Ladies! 5:26
3 Free (If Only) 4:30
4 Erosion 4:30
5 The Man At The Window 3:32
6 Strike & Awe 3:40
7 Apply 3:55
8 Flashlights 3:51
9 Virtual Love 3:42
10 Parfum Exotique 5:16
11 25 Years 4:30
12 Crystal 3:53
13 To Float Or To Know 4:04
14 Sleepers 4:07
15 My World 4:49
16 Tears For Galileo (Reprise) 0:54

[spoiler]

Código: Selecionar todos

Exact Audio Copy V0.99 prebeta 4 from 23. January 2008

EAC extraction logfile from 12. January 2011, 5:44

GAZEBO /  the syndrone

Used drive  : TSSTcorpCD/DVDW SH-W162L   Adapter: 3  ID: 1

Read mode               : Secure
Utilize accurate stream : Yes
Defeat audio cache      : Yes
Make use of C2 pointers : No

Read offset correction                      : 6
Overread into Lead-In and Lead-Out          : No
Fill up missing offset samples with silence : Yes
Delete leading and trailing silent blocks   : No
Null samples used in CRC calculations       : Yes
Used interface                              : Installed external ASPI interface

Used output format : Internal WAV Routines
Sample format      : 44.100 Hz; 16 Bit; Stereo


TOC of the extracted CD

     Track |   Start  |  Length  | Start sector | End sector
    ---------------------------------------------------------
        1  |  0:00.00 |  4:21.60 |         0    |    19634   
        2  |  4:21.60 |  5:26.33 |     19635    |    44117   
        3  |  9:48.18 |  4:30.39 |     44118    |    64406   
        4  | 14:18.57 |  4:18.34 |     64407    |    83790   
        5  | 18:37.16 |  3:33.27 |     83791    |    99792   
        6  | 22:10.43 |  3:40.08 |     99793    |   116300   
        7  | 25:50.51 |  3:55.12 |    116301    |   133937   
        8  | 29:45.63 |  3:51.19 |    133938    |   151281   
        9  | 33:37.07 |  3:42.10 |    151282    |   167941   
       10  | 37:19.17 |  5:16.22 |    167942    |   191663   
       11  | 42:35.39 |  4:30.39 |    191664    |   211952   
       12  | 47:06.03 |  3:53.34 |    211953    |   229461   
       13  | 50:59.37 |  4:02.64 |    229462    |   247675   
       14  | 55:02.26 |  4:06.72 |    247676    |   266197   
       15  | 59:09.23 |  4:48.11 |    266198    |   287808   
       16  | 63:57.34 |  0:56.47 |    287809    |   292055   


Range status and errors

Selected range

     Filename C:\Documents and Settings\Мои документы\GAZEBO -  the syndrone.ape.eac.by.rat.Israel-club.my1.ru\GAZEBO -  the syndrone.ape.eac.by.rat.Israel-club.my1.ru.wav

     Peak level 99.9 %
     Range quality 100.0 %
     Copy CRC 848943E0
     Copy OK

No errors occurred

End of status report
[/spoiler]
ed2k: GAZEBO.-....the.syndrone.ape.eac.by.rat.Israel-club.my1.ru.rar  [425.16 Mb]

Avatar do Utilizador
tueunos
Utilizador
Utilizador
Mensagens: 7585
Registado: 17 mai 2008, 21:31
Localização: Algures Planeta Terra

Re: Gazebo - ...The Syndrone (2008) [ape]

Mensagem por tueunos » 12 jan 2011, 19:59

Imagem
Imagem

"A vida é uma pedra de amolar: desgasta-nos ou afia-nos, conforme o metal de que somos feitos."

"Eu sou responsável pelo que digo, não pelo que as pessoas entendem."

Responder

Voltar para “Álbuns Lossless // Lossless Complete Albums”