Moody Blues - The Other Side of Life (1986)[APE]

Formatos Lossless // File formats (FLAC, WAV, MLP, APE, TTA, ALS, etc.)

Moderador: Moderador

Responder
rat24

Moody Blues - The Other Side of Life (1986)[APE]

Mensagem por rat24 » 01 dez 2010, 18:26

Imagem

Released 9 April 1986
Recorded Late 1985
Quality, eac-ape
Genre Rock
Length 41:54
Label Polydor
Producer Tony Visconti


[spoiler]
The Other Side of Life is the eleventh album by the rock band The Moody Blues. It contains the major hit, "Your Wildest Dreams," which, like "Nights in White Satin" before it, was a top-10 hit in the United States. It is the third album of the Patrick Moraz era, and the first for flautist and vocalist Ray Thomas not to play a major role. The music on this album marked the beginning of dominant synthesizer, sequencer, and drum machine use by the band, to the point that the entire album could be classified as a "synthpop" record; a surprising stylistic change for a band that had pioneered symphonic rock.
[/spoiler]
01. Your Wildest Dreams [0:04:51.37]
02. Talkin' Talkin' [0:03:55.40]
03. Rock 'n' Roll Over You [0:04:50.65]
04. I Just Don't Care [0:03:28.55]
05. Running Out of Love [0:04:24.15]
06. The Other Side of Life [0:06:52.25]
07. The Spirit [0:04:19.23]
08. Slings and Arrows [0:04:29.22]
09. It May Be a Fire [0:04:54.55]


[spoiler]

Código: Selecionar todos

Exact Audio Copy V0.99 prebeta 4 from 23. January 2008

EAC extraction logfile from 18. November 2010, 23:10

Moody Blues / The Other Side of Life

Used drive  : TSSTcorpCD/DVDW SH-W162L   Adapter: 3  ID: 1

Read mode               : Secure
Utilize accurate stream : Yes
Defeat audio cache      : Yes
Make use of C2 pointers : No

Read offset correction                      : 6
Overread into Lead-In and Lead-Out          : No
Fill up missing offset samples with silence : Yes
Delete leading and trailing silent blocks   : No
Null samples used in CRC calculations       : Yes
Used interface                              : Installed external ASPI interface

Used output format : Internal WAV Routines
Sample format      : 44.100 Hz; 16 Bit; Stereo


TOC of the extracted CD

     Track |   Start  |  Length  | Start sector | End sector
    ---------------------------------------------------------
        1  |  0:00.00 |  4:51.37 |         0    |    21861   
        2  |  4:51.37 |  3:55.40 |     21862    |    39526   
        3  |  8:47.02 |  4:50.65 |     39527    |    61341   
        4  | 13:37.67 |  3:28.55 |     61342    |    76996   
        5  | 17:06.47 |  4:24.15 |     76997    |    96811   
        6  | 21:30.62 |  6:52.25 |     96812    |   127736   
        7  | 28:23.12 |  4:19.23 |    127737    |   147184   
        8  | 32:42.35 |  4:29.22 |    147185    |   167381   
        9  | 37:11.57 |  4:54.55 |    167382    |   189486   


Range status and errors

Selected range

     Filename C:\Documents and Settings\Мои документы\Moody Blues - The Other Side of Life.eac.covers.by.rat.lossless-muz.ucoz.com\Moody Blues - The Other Side of Life.eac.covers.by.rat.lossless-muz.ucoz.wav

     Peak level 87.7 %
     Range quality 100.0 %
     Copy CRC F5049863
     Copy OK

No errors occurred

End of status report
[/spoiler]
ed2k: Moody.Blues.-.The.Other.Side.of.Life.eac.covers.by.rat.lossless-muz.ucoz.com.rar  [280.40 Mb]

Responder
  • Tópicos Semelhantes
    Respostas
    Visualizações
    Última Mensagem

Voltar para “Álbuns Lossless // Lossless Complete Albums”