Crash Test Dummies - Oooh La La! (2010) [ape]

Formatos Lossless // File formats (FLAC, WAV, MLP, APE, TTA, ALS, etc.)

Moderador: Moderador

Responder
rat24

Crash Test Dummies - Oooh La La! (2010) [ape]

Mensagem por rat24 » 30 nov 2010, 20:15

Imagem

Released May 11, 2010
Quality Eac-ape
Genre Rock/Alternative rock/Folk rock
Length 36:33
Label Deep Fried Records,MRI Records
Producer Stewart Lerman


[spoiler]
Oooh La La! is the eighth album by the Crash Test Dummies, released 11 May 2010 on Deep Fried Records, distributed by MRI Records.[1]. The songs on the album are based around the Optigan and Omnichord toy instruments.
The seeds for Oooh La La! were first planted when Brad Roberts and producer Stewart Lerman (Antony & the Johnsons, The Roches) became infatuated with vintage analog musical toys, particularly one manufactured by the Mattel company called the Optigan (an acronym for "optical organ"). Using celluloid discs, the Optigan projects the sounds of other instruments with different sets of keys triggering chords and individual notes. The discs, with names like "Nashville," "Swing It!" and "Guitar Boogie," rotate to produce different arrays of sounds. The process is eerily similar to the digital sampling that is so common today, but the antiquated analog system produces quite a different effect. "Because we wrote using these discs, we were inspired to do things that we wouldn't have done," Roberts points out. "I don't write big band style, but all of a sudden I had this big band [on disc], so I'm writing in a genre that I normally wouldn't be writing in. I can't say enough about how great it is to write on these toys."[2]
[/spoiler]
01. Songbird [0:03:45.68]
02. You Said You'd Meet Me [0:03:25.10]
03. And It's Beautiful [0:03:24.73]
04. Paralyzed [0:03:32.21]
05. The In-Between Place [0:02:49.68]
06. Not Today Baby [0:03:10.35]
07. Heart Of Stone [0:04:52.29]
08. Lake Bras Dґor [0:02:25.55]
09. What I'm Famous For [0:02:57.67]
10. Now You See Her [0:04:06.66]
11. Put A Face [0:02:07.00]



[spoiler]

Código: Selecionar todos

Exact Audio Copy V0.99 prebeta 4 from 23. January 2008

EAC extraction logfile from 19. November 2010, 7:55

Crash Test Dummies / Oooh La La!

Used drive  : TSSTcorpCD/DVDW SH-W162L   Adapter: 3  ID: 1

Read mode               : Secure
Utilize accurate stream : Yes
Defeat audio cache      : Yes
Make use of C2 pointers : No

Read offset correction                      : 6
Overread into Lead-In and Lead-Out          : No
Fill up missing offset samples with silence : Yes
Delete leading and trailing silent blocks   : No
Null samples used in CRC calculations       : Yes
Used interface                              : Installed external ASPI interface

Used output format : Internal WAV Routines
Sample format      : 44.100 Hz; 16 Bit; Stereo


TOC of the extracted CD

     Track |   Start  |  Length  | Start sector | End sector
    ---------------------------------------------------------
        1  |  0:00.00 |  3:45.68 |         0    |    16942   
        2  |  3:45.68 |  3:25.10 |     16943    |    32327   
        3  |  7:11.03 |  3:24.73 |     32328    |    47700   
        4  | 10:36.01 |  3:32.21 |     47701    |    63621   
        5  | 14:08.22 |  2:49.68 |     63622    |    76364   
        6  | 16:58.15 |  3:10.35 |     76365    |    90649   
        7  | 20:08.50 |  4:52.29 |     90650    |   112578   
        8  | 25:01.04 |  2:25.55 |    112579    |   123508   
        9  | 27:26.59 |  2:57.67 |    123509    |   136850   
       10  | 30:24.51 |  4:06.66 |    136851    |   155366   
       11  | 34:31.42 |  2:07.00 |    155367    |   164891   


Range status and errors

Selected range

     Filename C:\Documents and Settings\Мои документы\Crash Test Dummies - Oooh La La!.eac.covers.by.rat.lossless-muz.ucoz.com\Crash Test Dummies - Oooh La La!.eac.covers.by.rat.lossless-muz.ucoz.wav

     Peak level 98.7 %
     Range quality 100.0 %
     Copy CRC B76A9274
     Copy OK

No errors occurred

End of status report
[/spoiler]
ed2k: Crash.Test.Dummies.-.Oooh.La.La!.eac.covers.by.rat.lossless-muz.ucoz.com.rar  [226.99 Mb]

Responder

Voltar para “Álbuns Lossless // Lossless Complete Albums”