Azul Y Negro - Suspense (rem.) (1984/1997) [APE]

Formatos Lossless // File formats (FLAC, WAV, MLP, APE, TTA, ALS, etc.)

Moderador: Moderador

Responder
rat24

Azul Y Negro - Suspense (rem.) (1984/1997) [APE]

Mensagem por rat24 » 13 nov 2010, 16:16

Imagem

Artist: Azul Y Negro
Album: Suspense
Released: 1984/1997
Genre: euro pop/dance
Format: Eac-ape


[spoiler]
Azul y Negro was founded in 1981 by Carlos G. Vaso: (born 1953 in Cartagena, Spain) a multi instrumentalist, songwriter and producer, and Joaquin Montoya: (b. 1950 Cartagena).
Contents

Azul y Negro was the pioneers of synth and electropop in Spain. The first album “La Edad De Los Colores” came out later in 1981. The year after the album "La Noche" (The Night) was released, followed by the better known "Digital".

This album was an international release, and was an instant chart success. Thanks to the single “Me Estoy Volviendo Loco” (Going Crazy) which became a hit in Europe, Japan, United States and Australia.
"Digital" was a collection from the first two albums, and included songs like: "No Tengo Tiempo", "La Torre de Madrid", "let`s spend THE NIGHT together" (La Noche), and a couple of catchy instrumental tracks.
[/spoiler]

01. Suspense [0:04:35.04]
02. Funky punky girl [0:04:19.27]
03. Sunny day [0:04:51.59]
04. Jibaro [0:03:28.06]
05. Herzanfall (Infarto) [0:03:27.28]
06. Hitchcock makes me happy [0:07:20.66]
07. Es hora de batlar [0:05:02.55]
08. El hombre lobo [0:03:39.45]
09. Agua de luna [0:04:32.38]
10. Hitchcock makes me happy (Dream team mix) [0:03:50.68]
11. El hombre lobo (Ultramix) [0:05:46.23]



[spoiler]

Código: Selecionar todos

[code]Exact Audio Copy V0.99 prebeta 4 from 23. January 2008

EAC extraction logfile from 9. March 2011, 5:40

Azul Y Negro / Suspense

Used drive  : TSSTcorpCD/DVDW SH-W162L   Adapter: 3  ID: 1

Read mode               : Secure
Utilize accurate stream : Yes
Defeat audio cache      : Yes
Make use of C2 pointers : No

Read offset correction                      : 6
Overread into Lead-In and Lead-Out          : No
Fill up missing offset samples with silence : Yes
Delete leading and trailing silent blocks   : No
Null samples used in CRC calculations       : Yes
Used interface                              : Installed external ASPI interface

Used output format : Internal WAV Routines
Sample format      : 44.100 Hz; 16 Bit; Stereo


TOC of the extracted CD

     Track |   Start  |  Length  | Start sector | End sector
    ---------------------------------------------------------
        1  |  0:00.00 |  4:35.04 |         0    |    20628   
        2  |  4:35.04 |  4:19.27 |     20629    |    40080   
        3  |  8:54.31 |  4:51.59 |     40081    |    61964   
        4  | 13:46.15 |  3:28.06 |     61965    |    77570   
        5  | 17:14.21 |  3:27.28 |     77571    |    93123   
        6  | 20:41.49 |  7:20.66 |     93124    |   126189   
        7  | 28:02.40 |  5:02.55 |    126190    |   148894   
        8  | 33:05.20 |  3:39.45 |    148895    |   165364   
        9  | 36:44.65 |  4:32.38 |    165365    |   185802   
       10  | 41:17.28 |  3:50.68 |    185803    |   203120   
       11  | 45:08.21 |  5:46.23 |    203121    |   229093   


Range status and errors

Selected range

     Filename C:\Documents and Settings\Мои документы\Azul Y Negro - Suspense.eac.covers.by.rat.lossless-muz.ucoz.com\Azul Y Negro - Suspense.by.wav

     Peak level 100.0 %
     Range quality 100.0 %
     Copy CRC E0E40C16
     Copy OK

No errors occurred

End of status report
[/spoiler]
ed2k: Azul.Y.Negro.-.Suspense.eac.covers.by.rat.lossless-muz.ucoz.com.rar  [318.31 Mb]


Responder

Voltar para “Álbuns Lossless // Lossless Complete Albums”