Cidade de Deus - O.S.T. (2003) F!N4LShare

Formatos Lossless // File formats (FLAC, WAV, MLP, APE, TTA, ALS, etc.)

Moderador: Moderador

Responder
Avatar do Utilizador
Maike
Utilizador
Utilizador
Mensagens: 148
Registado: 16 mar 2009, 23:46

Cidade de Deus - O.S.T. (2003) F!N4LShare

Mensagem por Maike » 13 nov 2010, 13:49



Tracklist:

01. Meu nome é Zé [2:28]
Written by Antonio Pinto & Ed Côrtes
Performed by Antonio Pinto & Ed Côrtes
02. Vida de otário [1:24]
Written by Antonio Pinto & Ed Côrtes
Performed by Antonio Pinto & Ed Côrtes
03. Funk da Virada [1:37]
Written by Antonio Pinto & Ed Côrtes
Performed by Antonio Pinto & Ed Côrtes
04. Estória da Boca [2:30]
Written by Antonio Pinto & Ed Côrtes
Performed by Antonio Pinto & Ed Côrtes
05. Na Rua, Na Chuva, Na Fazenda (Casinha de Sapê) [3:29]
Written by Hyldon
Performed by Hyldon
06. A Transa [2:00]
Written by Antonio Pinto & Ed Côrtes
Performed by Antonio Pinto & Ed Côrtes
07. Metamorfose Ambulante [3:50]
Written by Raul Seixas
Performed by Raul Seixas
08. Nem vem que não tem [2:32]
Written by Carlos Iperial
Performed by Wilson Simonal
09. Preciso Me Encontrar [2:58]
Written by Candeia
Performed by Cartola
10. Alvorada [2:37]
Written by Cartola, Carlos Cachaça, Hermínio Bello de Carvalho
Performed by Cartola
11. Convite para Vida [2:59]
Written by Seu Jorge, Antonio Pinto, Fabio Goes
Performed by Seu Jorge
12. O Caminho Do Bem [6:06]
Written by Sergio / Beto / Paulo
Performed by Tim Maia
13. Morte Zé Pequeno [6:06][/b]
Written by Antonio Pinto & Ed Côrtes
Performed by Antonio Pinto & Ed Côrtes
14. Batucada remix by Dj Camilo Rocha & DJ YAH [7:10]
of original music by Antonio Pinto and Ed Côrtes

CDRip:


Informações do Arquivo:

Código: Selecionar todos

FILE INFORMATION:
Softwares: Exact Audio Copy e FLAC + FLAC Frontend
Formato: FLAC level "0"
Bitrate: 895 Kbps
Source: CD/Album
File Size: 299 Mb
Released: 2003
Genre: Soundtrack
Group: F!N4LShare

ADITIONAL:
Front Cover, Back Cover, CD.


Log file:

Código: Selecionar todos

Exact Audio Copy V0.99 prebeta 5 from 4. May 2009

EAC extraction logfile from 5. November 2010, 20:14

Various / Cidade De Deus (City Of God)

Used drive  : HL-DT-STDVDRAM GH22NS50   Adapter: 0  ID: 0

Read mode               : Secure
Utilize accurate stream : Yes
Defeat audio cache      : No
Make use of C2 pointers : Yes

Read offset correction                      : 667
Overread into Lead-In and Lead-Out          : No
Fill up missing offset samples with silence : Yes
Delete leading and trailing silent blocks   : No
Null samples used in CRC calculations       : Yes
Used interface                              : Native Win32 interface for Win NT & 2000

Used output format : Internal WAV Routines
Sample format      : 44.100 Hz; 16 Bit; Stereo


TOC of the extracted CD

     Track |   Start  |  Length  | Start sector | End sector
    ---------------------------------------------------------
        1  |  0:00.00 |  2:30.59 |         0    |    11308 
        2  |  2:30.59 |  1:24.30 |     11309    |    17638 
        3  |  3:55.14 |  1:37.20 |     17639    |    24933 
        4  |  5:32.34 |  2:30.06 |     24934    |    36189 
        5  |  8:02.40 |  3:29.25 |     36190    |    51889 
        6  | 11:31.65 |  2:03.14 |     51890    |    61128 
        7  | 13:35.04 |  3:47.46 |     61129    |    78199 
        8  | 17:22.50 |  2:33.42 |     78200    |    89716 
        9  | 19:56.17 |  2:56.45 |     89717    |   102961 
       10  | 22:52.62 |  2:36.30 |    102962    |   114691 
       11  | 25:29.17 |  2:58.33 |    114692    |   128074 
       12  | 28:27.50 |  6:04.56 |    128075    |   155430 
       13  | 34:32.31 |  1:10.05 |    155431    |   160685 
       14  | 35:42.36 |  7:25.35 |    160686    |   194095 


Range status and errors

Selected range

     Filename G:\CIDADE DE DEUS OST\Various - Cidade De Deus (City Of God).wav

     Peak level 100.0 %
     Range quality 100.0 %
     Copy CRC 3D2A96EE
     Copy OK

No errors occurred


AccurateRip summary

Track  1  accurately ripped (confidence 10)  [9B39FF66]
Track  2  accurately ripped (confidence 10)  [69BDA66F]
Track  3  accurately ripped (confidence 10)  [F9F9C380]
Track  4  accurately ripped (confidence 10)  [B6360493]
Track  5  accurately ripped (confidence 10)  [27E1C03F]
Track  6  accurately ripped (confidence 10)  [397EF3BD]
Track  7  accurately ripped (confidence 10)  [F1E039D0]
Track  8  accurately ripped (confidence 10)  [CC98795D]
Track  9  accurately ripped (confidence 10)  [8E320EAD]
Track 10  accurately ripped (confidence 10)  [DC53FEC2]
Track 11  accurately ripped (confidence 10)  [0D8E2032]
Track 12  accurately ripped (confidence 10)  [77C3504B]
Track 13  accurately ripped (confidence 10)  [4A59A285]
Track 14  accurately ripped (confidence 10)  [D3A338AE]

All tracks accurately ripped

End of status report



eLink:

ed2k: Cidade.de.Deus.[OST].[2003].[FLAC].F!N4LShare.rar  [299.79 Mb]

Responder

Voltar para “Álbuns Lossless // Lossless Complete Albums”