Foghat - Last Train Home (2010) [APE]

Formatos Lossless // File formats (FLAC, WAV, MLP, APE, TTA, ALS, etc.)

Moderador: Moderador

Responder
rat24

Foghat - Last Train Home (2010) [APE]

Mensagem por rat24 » 02 nov 2010, 17:23

Imagem

Artist: Foghat
Album: Last Train Home
Released: 2010
Genre: blues/rock
Format: EAC/APE


[spoiler]
Getting home from work today I was surprised to find my Fathers Day gift to myself waiting to find it's way to my cd player. I am listening to FOGHAT's "LAST TRAIN HOME" for the 1st of many times right now. All tracks are strong. "Born For The Road" could have come from the mid 70's! Wanna hear a great blues jam check out "Rollin' & Tumblin/You Need Love". Straight ahead blues closes out the final 2 cuts on the album as 86-year young Eddie "Bluesman" Kirkland plays and sings. There are great liner notes too. These guys were definitely having the time of their lives recording this album. I am a FOGHAT fan from 1973 when I heard "ENERGIZED" for the 1st time in a clothing store in a mall looking for jeans as I headed to my first year of college. Was lucky enough to see the FOG three times during the arena days. However when they regrouped again in the 90's I got to meet my rock & roll heroes. Lonesome Dave, Rod "The Bottle" Price, Tony Stevens and the man on the kit...ROGER EARL!!! Thank you Roger for keeping FOGHAT going and putting out new music and touring. Lonesome Dave and Rod are certainly smiling up in rock and roll heaven as they listen to the album that they most certainly approve and are very proud of. I have seen the new FOGHAT and let me tell you...Charlie Huhn and Bryan Bassett are certainly keeping the FOG going strong. If you love good rocking boogie blues then don't hesitate. Get this CD now. If the FOG gets close to your hometown definitely go to the show. KEEP ON' ROCKIN'!!!
[/spoiler]

01. Born For The Road [0:04:59.71]
02. Needle And Spoon [0:03:46.08]
03. So Many Roads So Many Trains [0:04:50.37]
04. Last Train Home [0:04:22.72]
05. Shake Your Money Maker [0:04:38.69]
06. It Hurts Me Too [0:05:59.06]
07. Feel So Bad [0:04:39.68]
08. Louisiana Blues [0:04:43.48]
09. 495 Boogie [0:03:55.68]
10. Rollin' And Tumblin' [0:08:12.37]
11. In My Dreams [0:05:42.40]
12. Good Good Day [0:04:31.02]

[spoiler]

Código: Selecionar todos

Exact Audio Copy V0.99 prebeta 4 from 23. January 2008

EAC extraction logfile from 1. November 2010, 21:26

Foghat  /  Last Train Home

Used drive  : TSSTcorpCD/DVDW SH-W162L   Adapter: 3  ID: 1

Read mode               : Secure
Utilize accurate stream : Yes
Defeat audio cache      : Yes
Make use of C2 pointers : No

Read offset correction                      : 6
Overread into Lead-In and Lead-Out          : No
Fill up missing offset samples with silence : Yes
Delete leading and trailing silent blocks   : No
Null samples used in CRC calculations       : Yes
Used interface                              : Installed external ASPI interface

Used output format : Internal WAV Routines
Sample format      : 44.100 Hz; 16 Bit; Stereo


TOC of the extracted CD

     Track |   Start  |  Length  | Start sector | End sector
    ---------------------------------------------------------
        1  |  0:00.00 |  4:59.71 |         0    |    22495   
        2  |  4:59.71 |  3:46.08 |     22496    |    39453   
        3  |  8:46.04 |  4:50.37 |     39454    |    61240   
        4  | 13:36.41 |  4:22.72 |     61241    |    80962   
        5  | 17:59.38 |  4:38.69 |     80963    |   101881   
        6  | 22:38.32 |  5:59.06 |    101882    |   128812   
        7  | 28:37.38 |  4:39.68 |    128813    |   149805   
        8  | 33:17.31 |  4:43.48 |    149806    |   171078   
        9  | 38:01.04 |  3:55.68 |    171079    |   188771   
       10  | 41:56.72 |  8:12.37 |    188772    |   225708   
       11  | 50:09.34 |  5:42.40 |    225709    |   251398   
       12  | 55:51.74 |  4:31.02 |    251399    |   271725   


Range status and errors

Selected range

     Filename C:\Documents and Settings\Мои документы\Foghat  -  Last Train Home.eac.covers.by.rat.lossless-muz.ucoz.com\Foghat  -  Last Train Home.eac.covers.by.rat.lossless-muz.ucoz.wav

     File write error
     Peak level 99.9 %
     Range quality 100.0 %
     Copy CRC 689173C9
     Copy OK

There were errors

End of status report

------------------------------------------------------------

Exact Audio Copy V0.99 prebeta 4 from 23. January 2008

EAC extraction logfile from 1. November 2010, 22:43

Foghat  /  Last Train Home

Used drive  : TSSTcorpCD/DVDW SH-W162L   Adapter: 3  ID: 1

Read mode               : Secure
Utilize accurate stream : Yes
Defeat audio cache      : Yes
Make use of C2 pointers : No

Read offset correction                      : 6
Overread into Lead-In and Lead-Out          : No
Fill up missing offset samples with silence : Yes
Delete leading and trailing silent blocks   : No
Null samples used in CRC calculations       : Yes
Used interface                              : Installed external ASPI interface

Used output format : Internal WAV Routines
Sample format      : 44.100 Hz; 16 Bit; Stereo


TOC of the extracted CD

     Track |   Start  |  Length  | Start sector | End sector
    ---------------------------------------------------------
        1  |  0:00.00 |  4:59.71 |         0    |    22495   
        2  |  4:59.71 |  3:46.08 |     22496    |    39453   
        3  |  8:46.04 |  4:50.37 |     39454    |    61240   
        4  | 13:36.41 |  4:22.72 |     61241    |    80962   
        5  | 17:59.38 |  4:38.69 |     80963    |   101881   
        6  | 22:38.32 |  5:59.06 |    101882    |   128812   
        7  | 28:37.38 |  4:39.68 |    128813    |   149805   
        8  | 33:17.31 |  4:43.48 |    149806    |   171078   
        9  | 38:01.04 |  3:55.68 |    171079    |   188771   
       10  | 41:56.72 |  8:12.37 |    188772    |   225708   
       11  | 50:09.34 |  5:42.40 |    225709    |   251398   
       12  | 55:51.74 |  4:31.02 |    251399    |   271725   


Range status and errors

Selected range

     Filename C:\Documents and Settings\Мои документы\Foghat  -  Last Train Home.eac.covers.by.rat.lossless-muz.ucoz.com\Foghat  -  Last Train Home.eac.covers.by.rat.lossless-muz.ucoz.wav

     Peak level 99.9 %
     Range quality 100.0 %
     Copy CRC 689173C9
     Copy OK

No errors occurred

End of status report
[/spoiler]
ed2k: Foghat.-.Last.Train.Home.eac.covers.by.rat.lossless-muz.ucoz.com.rar  [420.69 Mb]

Responder

Voltar para “Álbuns Lossless // Lossless Complete Albums”