Chris Von Rohr(Krokus)- The Good The Bad And The Dog(1993)

Formatos Lossless // File formats (FLAC, WAV, MLP, APE, TTA, ALS, etc.)

Moderador: Moderador

Responder
rat24

Chris Von Rohr(Krokus)- The Good The Bad And The Dog(1993)

Mensagem por rat24 » 31 out 2010, 20:11

Imagem

Artist: Chris Von Rohr
Album: The Good The Bad And The Dog
Released: 1987/1993
Genre: Hard'n'heavy
Format: EAC/APE

[spoiler]
Since 1966, Chris played by pipe bands in various local, mainly as a drummer. It was 1975, the founder and leader of the Solothurn hard rockband Krokus, at first as a drummer, then as a singer, after the arrival of lead singer Marc Storace in 1979 as a bass player. Krokus celebrated in the 1980's worldwide success - not only in Europe but particularly in the USA and Canada. In 1982 he completed the first crocus with local rock band the Zurich Hallenstadion. After his separation from Krokus 1984 he produced two solo albums on the market: 1987 Hammer & Tongue and 1993 The Good, the Bad and the Dogat both BMG / Ariola appeared. From his life in the "Jungle Rock" act his two books, dogs will you ever rock (1991) and bananas flank (2003), they allow the reader a look behind the scenes of the rock business.
[/spoiler]


YEAR: 1987

01. What I Like [0:03:21.70]
02. Cat Scratch Fever [0:03:30.40]
03. Moskito [0:04:32.25]
04. Alone [0:02:33.50]
05. On Fire [0:04:12.37]
06. Crazy Miss Daisy [0:03:41.45]
07. See You Walking [0:04:33.70]
08. Shake It Up [0:03:49.33]
09. Get Down [0:02:58.25]
10. Sweet Little R'r' [0:02:06.70]
11. The Power Of Rock [0:03:27.65]
12. Amen [0:00:49.32]


[spoiler]

Código: Selecionar todos

Exact Audio Copy V0.99 prebeta 4 from 23. January 2008

EAC extraction logfile from 23. October 2010, 8:28

Chris Von Rohr / The Good The Bad And The Dog

Used drive  : Optiarc DVD RW AD-7170A   Adapter: 3  ID: 0

Read mode               : Secure
Utilize accurate stream : Yes
Defeat audio cache      : Yes
Make use of C2 pointers : No

Read offset correction                      : 48
Overread into Lead-In and Lead-Out          : No
Fill up missing offset samples with silence : Yes
Delete leading and trailing silent blocks   : No
Null samples used in CRC calculations       : Yes
Used interface                              : Installed external ASPI interface

Used output format : Internal WAV Routines
Sample format      : 44.100 Hz; 16 Bit; Stereo


TOC of the extracted CD

     Track |   Start  |  Length  | Start sector | End sector
    ---------------------------------------------------------
        1  |  0:00.00 |  3:21.70 |         0    |    15144   
        2  |  3:21.70 |  3:30.40 |     15145    |    30934   
        3  |  6:52.35 |  4:32.25 |     30935    |    51359   
        4  | 11:24.60 |  2:33.50 |     51360    |    62884   
        5  | 13:58.35 |  4:12.37 |     62885    |    81821   
        6  | 18:10.72 |  3:41.45 |     81822    |    98441   
        7  | 21:52.42 |  4:33.70 |     98442    |   118986   
        8  | 26:26.37 |  3:49.33 |    118987    |   136194   
        9  | 30:15.70 |  2:58.25 |    136195    |   149569   
       10  | 33:14.20 |  2:06.70 |    149570    |   159089   
       11  | 35:21.15 |  3:27.65 |    159090    |   174679   
       12  | 38:49.05 |  0:49.32 |    174680    |   178386   


Range status and errors

Selected range

     Filename C:\Documents and Settings\Мои документы\Chris Von Rohr - The Good The Bad And The Dog.eac.covers.by.rat.lossless-muz.ucoz.com\Chris Von Rohr - The Good The Bad And The Dog.eac.covers.by.rat.lossless-muz.ucoz.wav

     Peak level 94.4 %
     Range quality 99.9 %
     Copy CRC C8A7F1C0
     Copy OK

No errors occurred

End of status report
[/spoiler]
ed2k: Chris.Von.Rohr.-.The.Good.The.Bad.And.The.Dog.eac.covers.by.rat.lossless-muz.ucoz.com.rar  [265.79 Mb]

Responder

Voltar para “Álbuns Lossless // Lossless Complete Albums”