Hawkwind - Blood of the Earth (2010) *APE*

Formatos Lossless // File formats (FLAC, WAV, MLP, APE, TTA, ALS, etc.)

Moderador: Moderador

Responder
rat24

Hawkwind - Blood of the Earth (2010) *APE*

Mensagem por rat24 » 15 out 2010, 15:39

Imagem

Country: UK
Released: 2010
Genre: Rock
Style: space/prog
Quality: eac-ape


[spoiler]
Space-rock pioneers latest offering that blends a lot of electronics and other influences for a pretty good progressive electronic space-rock album.
Hawkwind have been around for as long as I have been alive on this planet, which is a shockingly long time now that I sit down to think about it. In their four decade career, the band has put out more albums than anyone can easily keep track of and trying to track their lineup changes would require a flowchart as big as my living room wall. A lot of people did time in the band over the past forty years including Lemmy of Motorhead (before he started Motorhead). The band’s influence is undeniable and they were at least partially responsible for shaping musicians that would form metal, punk, and space rock bands that we all grew up with (well those of us who are old enough to remember a world that had no internet, cell phones, or many computers).

Blood of the Earth is the first new Hawkwind album in five years. For this album they sort of took a lot of the elements that made up the band at various points in their career and blended them together. The music is best described as progressive electronic space rock. There is an awful lot of electronics, synths, and keyboards in all the songs, including occasional samples. The electronics are used to really accentuate the spacey and progressive atmosphere. This atmosphere is made more dense by the flange-laced guitars and melodic, spacey leads.

The songs are also quite melodic. You won’t find any heavy, crunchy riffs on this album, in fact the songs are all very accessible and tame. The band create a very dense and interesting sound with the numerous effects and layers of sound they created in each song and the vocals are very catchy and are mixed just low enough to not distract you from the instrumentation, but instead become another element of it. The band did a good job blending all these different influences, many of which they were an influence they actually created years ago. For a band that has been around forty years, they certainly haven’t gotten boring and Blood of the Earth is a really enjoyable album from these musical pioneers and one they can be proud of having in their discography.
[/spoiler]


01. Seahawks [0:06:14.62]
02. Blood of the Earth [0:02:59.45]
03. Wraith [0:06:09.34]
04. Green Machine [0:04:05.03]
05. Inner Visions [0:04:29.51]
06. Sweet Obsession [0:04:43.31]
07. Comfy Chair [0:04:57.28]
08. Prometheus [0:05:46.32]
09. You’d Better Believe It [0:07:15.02]
10. Sentinel [0:06:05.11]
11. Starshine [bonus track] [0:07:12.27]


[spoiler]

Código: Selecionar todos

Exact Audio Copy V0.99 prebeta 4 from 23. January 2008

EAC extraction logfile from 13. October 2010, 17:21

Hawkwind / Blood of the Earth

Used drive  : TSSTcorpCD/DVDW SH-W162L   Adapter: 3  ID: 1

Read mode               : Secure
Utilize accurate stream : Yes
Defeat audio cache      : Yes
Make use of C2 pointers : No

Read offset correction                      : 6
Overread into Lead-In and Lead-Out          : No
Fill up missing offset samples with silence : Yes
Delete leading and trailing silent blocks   : No
Null samples used in CRC calculations       : Yes
Used interface                              : Installed external ASPI interface

Used output format : Internal WAV Routines
Sample format      : 44.100 Hz; 16 Bit; Stereo


TOC of the extracted CD

     Track |   Start  |  Length  | Start sector | End sector
    ---------------------------------------------------------
        1  |  0:00.00 |  6:14.62 |         0    |    28111   
        2  |  6:14.62 |  2:59.45 |     28112    |    41581   
        3  |  9:14.32 |  6:09.34 |     41582    |    69290   
        4  | 15:23.66 |  4:05.03 |     69291    |    87668   
        5  | 19:28.69 |  4:29.51 |     87669    |   107894   
        6  | 23:58.45 |  4:43.31 |    107895    |   129150   
        7  | 28:42.01 |  4:57.28 |    129151    |   151453   
        8  | 33:39.29 |  5:46.32 |    151454    |   177435   
        9  | 39:25.61 |  7:15.02 |    177436    |   210062   
       10  | 46:40.63 |  6:05.11 |    210063    |   237448   
       11  | 52:45.74 |  7:12.27 |    237449    |   269875   


Range status and errors

Selected range

     Filename C:\Documents and Settings\Мои документы\Hawkwind - Blood of the Earth .eac.covers.by.rat.lossless-muz.ucoz.com\Hawkwind - Blood of the Earth .eac.covers.by.rat.lossless-muz.ucoz.wav

     Peak level 100.0 %
     Range quality 100.0 %
     Copy CRC 3C965BFF
     Copy OK

No errors occurred

End of status report
[/spoiler]
ed2k: Hawkwind.-.Blood.of.the.Earth.eac.covers.by.rat.lossless-muz.ucoz.com.rar  [392.37 Mb]

Responder

Voltar para “Álbuns Lossless // Lossless Complete Albums”